Register · 
Username: Password:
 ·  Forgot password?

Iron Maiden - The Book Of Souls - Live Chapter 2016-17. [2017, Heavy Metal,Web-DL Rip]

Reply to topic
DL-List and Torrent activity [Update пиров]
Size:  1.51 GB   |    Registered:  1 year 7 months   |    Completed:  0 times

Seeder not seen: Never

 
   
 
 
 
Author Message

Makci ®

Gender:

Longevity: 6 years 2 months

Posts: 12410

Post 21-Apr-2018 23:15

[Quote]

Iron Maiden - The Book Of Souls - Live Chapter 2016-17. Жанр: Heavy Metal
Продолжительность: 01:56:45.
Год выпуска: 2017
Описание: Концертное видео с тура 2016-17 г.г.- Iron Maiden - The Book Of Souls - Live Chapter.
( материалом поделился ув.meloman67 )
Треклист:

01 - If Eternity Should Fail (Live At Qudos Bank Arena, Sydney, Australia - Friday 6th May 2016)
02 - Speed Of Light (Live At Grand Arena, GrandWest, Cape Town, South Africa - Wednesday 18th May 2016)
03 - Wrathchild (Live At 3 Arena, Dublin, Ireland - Saturday 6th May 2017)
04 - Children Of The Damned (Live At Bell Center, Montreal, Canada - Friday 1st April 2016)
05 - Tears Of A Clown (Live At Open Air Festival, Wacken, Germany - Thursday 4th August 2016)
06 - The Red And The Black (Live At Ryogoku Kokugikan, Tokyo, Japan - Thursday 21st April 2016)
07 - The Trooper (Live At Estadio Jorge Magico Gonzalez, San Salvador, El Salvador - Sunday 6th March 2016)
08 - Powerslave (Live At Plaza Dell'Unita D'Italia, Trieste, Italy - Tuesday 26th July 2016)
09 - Death Or Glory (Live At Wroclaw Stadium, Wroclaw, Poland - Sunday 3rd July 2016)
10 - The Great Unknown (Live At MRA Arena, Newcastle, England - Sunday 14th May 2017)
11 - The Book Of Souls (Live At Download Festival, Donington, England - Sunday 12th June 2016)
12 - Hallowed Be Thy Name (Live At Open Air Festival, Wacken, Germany - Thursday 4th August 2016)
13 - Fear Of The Dark (Live At Arena Castelao, Fortaleza, Brazil - Thursday 24th March 2016)
14 - Iron Maiden (Live At Estadio Velez Sarsfield, Buenos Aires, Argentina - Tuesday 15th March 2016)
15 - The Number Of The Beast (Live At Open Air Festival, Wacken, Germany - Thursday 4th August 2016)
16 - Blood Brothers (Live At Download Festival, Donington, England - Sunday 12th June 2016)
17 - Wasted Years (Live At HSBC Arena, Rio De Janeiro, Brazil - Thursday 17th March 2016)

Доп. информация: по видео

скрытый текст

Полное имя Iron Maiden - The Book Of Souls - Live Chapter 2017.avi
Формат : AVI
Формат/Информация : Audio Video Interleave
Профиль формата : OpenDML
Размер файла : 1,51 Гбайт
Продолжительность : 1 ч. 56 м.
Общий поток : 1848 Кбит/сек
Программа кодирования : Lavf51.12.1
Видео
Идентификатор : 0
Формат : xvid
Идентификатор кодека : xvid
Продолжительность : 1 ч. 56 м.
Битрейт : 1579 Кбит/сек
Ширина : 688 пикселей
Высота : 384 пикселя
Соотношение сторон : 16:9
Частота кадров : 25,000 кадров/сек
Бит/(Пиксели*Кадры) : 0.239
Размер потока : 1,29 Гбайт (85%)
Аудио
Идентификатор : 1
Формат : AC-3
Формат/Информация : Audio Coding 3
Расширение режима : CM (complete main)
Параметр Endianness формата : Big
Идентификатор кодека : 2000
Продолжительность : 1 ч. 56 м.
Вид битрейта : Постоянный
Битрейт : 256 Кбит/сек
Каналы : 2 канала
Расположение каналов : Front: L R
Частота : 48,0 КГц
Битовая глубина : 16 бит
Метод сжатия : С потерями
Размер потока : 214 Мбайт (14%)
Выравнивание : Соединение по промежуткам
Продолжительность промежутка : 32 мс. (0,80 видеокадр)
Время предзагрузки промежутка : 32 мс.
Источник: собственный рип
Cсылка http:///forum/viewtopic.php?t=5549295
Качество: Web-DL Rip
Контейнер: AVI
Видео кодек: XviD
Аудио кодек: AC3
Видео: 688x384 (1.79:1), 25 fps, XviD build 63 ~1584 kbps avg, 0.24 bit/pixel
Аудио: 48 kHz, AC3 Dolby Digital, 2/0 (L,R) ch, ~256.00 kbps avg

Скриншоты

Мои другие раздачи 1 - [url=tracker.php?rid=14861751]http:///forum/tracker.php?rid=14861751[/url]
Мои другие раздачи 2- [url=tracker.php?rid=26740408]http:///forum/tracker.php?rid=26740408[/url]Приятного просмотра!
[ru-zerkalo.org]_t_5550016
Torrent: Registered ·  [ 2018-04-21 23:13 ] ·  0978eeccaaf292013fca9098f0d2aa8c58de832c

16 KB

Status: checked
Completed: 0 times
Size: 1.51 GB
Rating: 
(Votes: 0)
Say thanks: 0  Thanks
 
Похожие темы
[Profile] [PM]
Display posts from previous:    
Reply to topic

The time now is: Today 02:29

All times are GMT + 7 Hours



You cannot post new topics in this forum
You cannot reply to topics in this forum
You cannot edit your posts in this forum
You cannot delete your posts in this forum
You cannot vote in polls in this forum
You cannot attach files in this forum
You can download files in this forum