Register · 
Username: Password:
 ·  Forgot password?

[SACD-R][OF] Erroll Garner - Supreme Jazz - 2006 (Jazz, Swing)

Reply to topic
DL-List and Torrent activity [Update пиров]
Size:  3.32 GB   |    Registered:  1 year 3 months   |    Completed:  0 times

Seeder not seen: Never

 
   
 
 
 
Author Message

temkin_88 ®

Gender:

Longevity: 6 years

Posts: 17371

Post 28-Jun-2018 23:08

[Quote]

Erroll Garner / Supreme Jazz- Формат записи/Источник записи: [SACD-R][OF]
Наличие водяных знаков: Нет
Год издания/переиздания диска: 2006
Жанр: Jazz, Swing
Издатель (лейбл): Membran
Продолжительность: 01:01:59
Наличие сканов в содержимом раздачи: Только обложка альбома-Треклист:
01. When You’re Smiling
02. Poor Butterfly
03. My Heart Stood Still
04. Long Ago And Far Away
05. Spring Is Here
06. I Don’t Know Why
07. It Could happen To You
08. When Johnny Comes Marching Home
09. Lover
10. How High The Moon
11. The Petite Waltz
12. People Will Say We’re In Love
13. Laura
14. I Cover The Waterfront
15. Indiana
16. I’m In The Mood For Love
17. Honeysuckle Rose
18. I Can’t Get Started
19. Penthouse Serenade-Контейнер: ISO (*.iso)
Тип рипа: image
Разрядность: 64(2,8 MHz/1 Bit)
Формат: DST64
Количество каналов: 5.1, 2.0-Доп. информация: Membran 223545-207 (2006)
Iso was made with sacd-ripper for PS3, from the magical Mr_Wicked.
Источник (релизер): jazzyman (PS³SACD)
https://www.amazon.co.uk/Supreme-Jazz-Erroll-Garner/dp/B000F5GP2C

Лог DR

foobar2000 1.3.13 / Замер динамического диапазона (DR) 1.1.1Дата отчёта: 2018-06-27 01:04:15
--------------------------------------------------------------------------------Анализ: ? / ?--------------------------------------------------------------------------------
DR Пики RMS Продолжительность трека--------------------------------------------------------------------------------DR14 -4.59 дБ -25.18 дБ 3:47 01-When You' SmilingDR14 -4.75 дБ -24.34 дБ 3:10 02-Poor ButterflyDR15 -4.31 дБ -26.37 дБ 4:19 03-My Heart Stood StillDR14 -4.83 дБ -25.04 дБ 2:39 04-Long Ago And Far AwayDR14 -4.82 дБ -24.81 дБ 2:27 05-Spring Is HereDR14 -4.23 дБ -25.22 дБ 3:30 06-I Don't Know WhyDR13 -4.87 дБ -24.71 дБ 3:48 07-It Could Happen To YouDR14 -4.49 дБ -24.37 дБ 3:26 08-When Johnny Comes Marching HomeDR14 -4.36 дБ -24.44 дБ 3:13 09-LoverDR15 -4.65 дБ -25.78 дБ 3:28 10-How High The MoonDR14 -4.88 дБ -24.27 дБ 2:38 11-The Petite WaltzDR15 -4.61 дБ -24.95 дБ 3:52 12-People Will Say We're In LoveDR14 -4.93 дБ -23.77 дБ 2:47 13-LauraDR15 -5.13 дБ -25.23 дБ 3:42 14-I Cover The WaterfrontDR14 -4.63 дБ -23.49 дБ 2:09 15-IndianaDR15 -4.90 дБ -25.71 дБ 3:40 16-I'm In The Mood For LoveDR14 -4.80 дБ -23.98 дБ 3:26 17-Honeysuckle RoseDR14 -4.88 дБ -25.47 дБ 3:01 18-I Can't Get StartedDR15 -4.75 дБ -24.91 дБ 2:57 19-Penthouse Serenade--------------------------------------------------------------------------------
Количество треков: 19Реальные значения DR: DR14
Частота: 2822400 Гц / Частота PCM: 352800 ГцКаналов: 6Разрядность: 24Битрейт: 16934 кбит/сКодек: DST64================================================================================
--------------------------------------------------------------------------------Анализ: ? / ?--------------------------------------------------------------------------------
DR Пики RMS Продолжительность трека--------------------------------------------------------------------------------DR16 -4.94 дБ -23.43 дБ 3:47 01-When You' SmilingDR16 -4.86 дБ -22.57 дБ 3:10 02-Poor ButterflyDR17 -4.98 дБ -25.17 дБ 4:19 03-My Heart Stood StillDR16 -5.04 дБ -23.68 дБ 2:39 04-Long Ago And Far AwayDR16 -4.38 дБ -22.70 дБ 2:27 05-Spring Is HereDR16 -4.95 дБ -23.46 дБ 3:30 06-I Don't Know WhyDR14 -4.52 дБ -22.87 дБ 3:48 07-It Could Happen To YouDR16 -4.87 дБ -22.65 дБ 3:26 08-When Johnny Comes Marching HomeDR16 -4.87 дБ -22.62 дБ 3:13 09-LoverDR16 -4.73 дБ -24.47 дБ 3:28 10-How High The MoonDR15 -4.60 дБ -22.47 дБ 2:38 11-The Petite WaltzDR16 -4.59 дБ -23.29 дБ 3:52 12-People Will Say We're In LoveDR14 -4.69 дБ -21.65 дБ 2:47 13-LauraDR15 -4.89 дБ -23.68 дБ 3:42 14-I Cover The WaterfrontDR15 -4.83 дБ -21.79 дБ 2:09 15-IndianaDR17 -4.93 дБ -24.46 дБ 3:40 16-I'm In The Mood For LoveDR15 -4.83 дБ -22.24 дБ 3:26 17-Honeysuckle RoseDR15 -4.83 дБ -23.94 дБ 3:01 18-I Can't Get StartedDR17 -4.77 дБ -23.20 дБ 2:57 19-Penthouse Serenade--------------------------------------------------------------------------------
Количество треков: 19Реальные значения DR: DR16
Частота: 2822400 Гц / Частота PCM: 352800 ГцКаналов: 2Разрядность: 24Битрейт: 5645 кбит/сКодек: DST64================================================================================
[ru-zerkalo.org]_t_5579919
Torrent: Registered ·  [ 2018-06-28 23:06 ] ·  255594a4e108c6763245192792a3575b81c82c74

17 KB

Status: checked
Completed: 0 times
Size: 3.32 GB
Rating: 
(Votes: 0)
Say thanks: 0  Thanks
 
Похожие темы
[Profile] [PM]
Display posts from previous:    
Reply to topic

The time now is: Today 07:11

All times are GMT + 7 Hours



You cannot post new topics in this forum
You cannot reply to topics in this forum
You cannot edit your posts in this forum
You cannot delete your posts in this forum
You cannot vote in polls in this forum
You cannot attach files in this forum
You can download files in this forum