Register · 
Username: Password:
 ·  Forgot password?

Doro • Wacken Open Air 2018 [2018, Heavy Metal, HDTVRip]

Reply to topic
DL-List and Torrent activity [Update пиров]
Size:  511 MB   |    Registered:  1 year 1 month   |    Completed:  0 times

Seeder not seen: Never

 
   
 
 
 
Author Message

Makci ®

Gender:

Longevity: 6 years

Posts: 12570

Post 28-Aug-2018 05:01

[Quote]

Doro • Wacken Open Air 2018.(with Andy Scott & Peter Lincoln) Жанр: Heavy Metal
Продолжительность: 00:28:30.
Год выпуска: 2018
Описание[/b]: Концертное видео Doro • Wacken Open Air 2018. (with Andy Scott & Peter Lincoln)
( материалом поделился ув. meloman67 )
Треклист:
01. The Ballroom Blitz (The Sweet cover) (with Andy Scott & Peter Lincoln)
02. East Meets West (with Tommy Bolan on guitar)
03. Fur Immer (with Tommy Bolan on guitar)
04. If I Can't Have You - No One Will (with Johan Hegg)
05. Breaking the Law (Judas Priest cover)(with Jeff Waters)

Доп. информация: по видео

скрытый текст

Общее
Полное имя Doro - Wacken Open Air 2018.avi
Формат : AVI
Формат/Информация : Audio Video Interleave
Размер файла : 511 Мбайт
Продолжительность : 28 м.
Общий поток : 2504 Кбит/сек
Программа кодирования : Lavf51.12.1
Видео
Идентификатор : 0
Формат : xvid
Идентификатор кодека : xvid
Продолжительность : 28 м.
Битрейт : 2302 Кбит/сек
Ширина : 688 пикселей
Высота : 384 пикселя
Соотношение сторон : 16:9
Частота кадров : 25,000 кадров/сек
Бит/(Пиксели*Кадры) : 0.348
Размер потока : 469 Мбайт (92%)
Аудио
Идентификатор : 1
Формат : AC-3
Формат/Информация : Audio Coding 3
Расширение режима : CM (complete main)
Параметр Endianness формата : Big
Идентификатор кодека : 2000
Продолжительность : 28 м.
Вид битрейта : Постоянный
Битрейт : 192 Кбит/сек
Каналы : 2 канала
Расположение каналов : Front: L R
Частота : 48,0 КГц
Битовая глубина : 16 бит
Метод сжатия : С потерями
Размер потока : 39,2 Мбайт (8%)
Выравнивание : Соединение по промежуткам
Продолжительность промежутка : 32 мс. (0,80 видеокадр)
Время предзагрузки промежутка : 32 мс.
Источник: собственный рип
Cсылка http:///forum/viewtopic.php?t=5599032
Качество: HDTVRip
Контейнер: AVI
Видео кодек: XviD
Аудио кодек: AC3
Видео: 688x384 (1.79:1), 25 fps, XviD build 63 ~2301 kbps avg, 0.35 bit/pixel
Аудио: 48 kHz, AC3 Dolby Digital, 2/0 (L,R) ch, ~192.00 kbps avg

Скриншоты

Мои другие раздачи 1 - [url=tracker.php?rid=14861751]http:///forum/tracker.php?rid=14861751[/url]
Мои другие раздачи 2- [url=tracker.php?rid=26740408]http:///forum/tracker.php?rid=26740408[/url]Приятного просмотра!
[ru-zerkalo.org]_t_5603345
Torrent: Registered ·  [ 2018-08-28 05:01 ] ·  0792e6c35e9f474925faa04f27ecc40d9414d727

20 KB

Status: checked
Completed: 0 times
Size: 511 MB
Rating: 
(Votes: 0)
Say thanks: 0  Thanks
 
Похожие темы
[Profile] [PM]
Display posts from previous:    
Reply to topic

The time now is: Today 07:45

All times are GMT + 7 Hours



You cannot post new topics in this forum
You cannot reply to topics in this forum
You cannot edit your posts in this forum
You cannot delete your posts in this forum
You cannot vote in polls in this forum
You cannot attach files in this forum
You can download files in this forum