Register · 
Username: Password:
 ·  Forgot password?

Behemoth - Messe Noire: Live Satanist [2018, Black Metal, DVDRip-AVC]

Reply to topic
DL-List and Torrent activity [Update пиров]
Size:  2.3 GB   |    Registered:  1 year   |    Completed:  0 times

Seeder not seen: Never

 
   
 
 
 
Author Message

Makci ®

Gender:

Longevity: 6 years 2 months

Posts: 12410

Post 14-Nov-2018 05:18

[Quote]

Messe Noire
Live Satanist
-- -Страна:
Жанр: Black Metal
Продолжительность: 01:21:19+01:07:45+00:36:28
Год выпуска: 13 Apr 2018-Источник: собственный рип-

Messe Noire: Live Satanist (Recorded at Progresja in Warsaw, Poland, 10.08.2016)


Треклист:
1. Blow Your Trumpets Gabriel
2. Furor Divinus
3. Messe Noire
4. Ora Pro Nobis Lucifer
5. Amen
6. The Satanist
7. Ben Sahar
8. In the Absence ov Light
9. O Father O Satan O Sun!
10. Ov Fire and the Void
11. Conquer All
12. Pure Evil and Hate
13. At the Left Hand ov God
14. Slaves Shall Serve
15. Chant for Ezkaton 2000-Качество: DVDRip-AVC
Контейнер: MKV
Видео кодек: H.264
Аудио кодек: AC3
Видео: MPEG4 AVC / 720*416 (2,103) / 29.97 fps / 1550 kbps
Аудио: AC3 / 224 kbps / 48.0 khz / 2 ch

MI

ОбщееУникальный идентификатор : 235717465343363268206951513327065073052 (0xB1558851650A4CD49C1CEFC887BB859C)Полное имя : D:\Torrents\Download\Behemoth - Messe Noire. Live Satanist\01. Messe Noire Live Satanist.mkvФормат : MatroskaВерсия формата : Version 4Размер файла : 1,01 ГбайтПродолжительность : 1 ч. 21 м.Общий поток : 1776 Кбит/секДата кодирования : UTC 2018-11-03 16:12:40Программа кодирования : mkvmerge v7.1.0 ('Good Love') 64bit built on Jul 27 2014 13:06:55Библиотека кодирования : libebml v1.3.0 + libmatroska v1.4.1
ВидеоИдентификатор : 1Формат : AVCФормат/Информация : Advanced Video CodecПрофиль формата : High@L4.1Настройки формата : CABAC / 16 Ref FramesПараметр CABAC формата : ДаПараметр RefFrames формата : 16 кадровИдентификатор кодека : V_MPEG4/ISO/AVCПродолжительность : 1 ч. 21 м.Битрейт : 1550 Кбит/секШирина : 720 пикселейВысота : 416 пикселейСоотношение сторон : 2,103Режим частоты кадров : ПостоянныйЧастота кадров : 29,970 (30000/1001) кадров/секЦветовое пространство : YUVСубдискретизация насыщенности : 4:2:0Битовая глубина : 8 битТип развёртки : ПрогрессивнаяБит/(Пиксели*Кадры) : 0.173Размер потока : 902 Мбайт (87%)Библиотека кодирования : x264 core 152 r2851 ba24899Настройки программы : cabac=1 / ref=16 / deblock=1:-2:-2 / analyse=0x3:0x133 / me=umh / subme=10 / psy=1 / psy_rd=1.00:0.15 / mixed_ref=1 / me_range=24 / chroma_me=1 / trellis=2 / 8x8dct=1 / cqm=0 / deadzone=21,11 / fast_pskip=1 / chroma_qp_offset=-3 / threads=6 / lookahead_threads=1 / sliced_threads=0 / nr=0 / decimate=1 / interlaced=0 / bluray_compat=0 / constrained_intra=0 / bframes=8 / b_pyramid=2 / b_adapt=2 / b_bias=0 / direct=3 / weightb=1 / open_gop=0 / weightp=2 / keyint=300 / keyint_min=29 / scenecut=40 / intra_refresh=0 / rc_lookahead=60 / rc=2pass / mbtree=1 / bitrate=1550 / ratetol=1.0 / qcomp=0.60 / qpmin=0 / qpmax=69 / qpstep=4 / cplxblur=20.0 / qblur=0.5 / vbv_maxrate=50000 / vbv_bufsize=50000 / nal_hrd=none / filler=0 / ip_ratio=1.40 / aq=1:1.00Default : ДаForced : Нет
АудиоИдентификатор : 2Формат : AC-3Формат/Информация : Audio Coding 3Коммерческое название : Dolby DigitalИдентификатор кодека : A_AC3Продолжительность : 1 ч. 21 м.Вид битрейта : ПостоянныйБитрейт : 224 Кбит/секКаналы : 2 каналаChannel layout : L RЧастота : 48,0 КГцЧастота кадров : 31,250 кадров/сек (1536 SPF)Битовая глубина : 16 битМетод сжатия : С потерямиЗадержка видео : 19 мс.Размер потока : 130 Мбайт (13%)ServiceKind/String : Complete MainDefault : ДаForced : Нет
Меню00:00:00.000 : en:Blow Your Trumpets Gabriel00:06:18.200 : en:Furor Divinus00:09:39.967 : en:Messe Noire00:14:20.967 : en:Ora Pro Nobis Lucifer00:20:40.935 : en:Amen00:24:35.869 : en:The Satanist00:31:21.169 : en:Ben Sahar00:36:51.736 : en:In the Absence ov Light00:41:57.070 : en:O Father O Satan O Sun!00:52:16.871 : en:Ov Fire and the Void00:57:40.638 : en:Conquer All01:02:05.105 : en:Pure Evil and Hate01:06:09.839 : en:At the Left Hand ov God01:11:26.106 : en:Slaves Shall Serve01:15:08.740 : en:Chant for Ezkaton 2000

Messe Noire: Live Assault (Official Bootleg, Recorded at Brutal Assault Festival in Jaromer, Czech Republic, 08.13.2016


Треклист:
1. Blow Your Trumpets Gabriel
2. Furor Divinus
3. Messe Noire
4. Ora Pro Nobis Lucifer
5. Amen
6. The Satanist
7. Ben Sahar
8. In the Absence ov Light
9. O Father O Satan O Sun!
10. Ov Fire and the Void
11. Conquer All
12. Chant for Ezkaton 2000-Качество: DVDRip-AVC
Контейнер: MKV
Видео кодек: H.264
Аудио кодек: AC3
Видео: MPEG4 AVC / 720*432 (2,025) / 29.97 fps / 1550 kbps
Аудио: AC3 / 224 kbps / 48.0 khz / 2 ch

MI

ОбщееУникальный идентификатор : 210535542965436900180832592683186242019 (0x9E63ABB0141E5F2A8B6B35DCECB7C1E3)Полное имя : D:\Torrents\Download\Behemoth - Messe Noire. Live Satanist\02. Live Assault.mkvФормат : MatroskaВерсия формата : Version 4Размер файла : 861 МбайтПродолжительность : 1 ч. 7 м.Общий поток : 1776 Кбит/секДата кодирования : UTC 2018-11-05 14:47:11Программа кодирования : mkvmerge v7.1.0 ('Good Love') 64bit built on Jul 27 2014 13:06:55Библиотека кодирования : libebml v1.3.0 + libmatroska v1.4.1
ВидеоИдентификатор : 1Формат : AVCФормат/Информация : Advanced Video CodecПрофиль формата : High@L4.1Настройки формата : CABAC / 16 Ref FramesПараметр CABAC формата : ДаПараметр RefFrames формата : 16 кадровИдентификатор кодека : V_MPEG4/ISO/AVCПродолжительность : 1 ч. 7 м.Битрейт : 1550 Кбит/секШирина : 720 пикселейВысота : 432 пикселяСоотношение сторон : 2,025Соотношение сторон в оригинале : 2,026Режим частоты кадров : ПостоянныйЧастота кадров : 29,970 (30000/1001) кадров/секЦветовое пространство : YUVСубдискретизация насыщенности : 4:2:0Битовая глубина : 8 битТип развёртки : ПрогрессивнаяБит/(Пиксели*Кадры) : 0.166Размер потока : 751 Мбайт (87%)Библиотека кодирования : x264 core 152 r2851 ba24899Настройки программы : cabac=1 / ref=16 / deblock=1:-2:-2 / analyse=0x3:0x133 / me=umh / subme=10 / psy=1 / psy_rd=1.00:0.15 / mixed_ref=1 / me_range=24 / chroma_me=1 / trellis=2 / 8x8dct=1 / cqm=0 / deadzone=21,11 / fast_pskip=1 / chroma_qp_offset=-3 / threads=6 / lookahead_threads=1 / sliced_threads=0 / nr=0 / decimate=1 / interlaced=0 / bluray_compat=0 / constrained_intra=0 / bframes=8 / b_pyramid=2 / b_adapt=2 / b_bias=0 / direct=3 / weightb=1 / open_gop=0 / weightp=2 / keyint=300 / keyint_min=29 / scenecut=40 / intra_refresh=0 / rc_lookahead=60 / rc=2pass / mbtree=1 / bitrate=1550 / ratetol=1.0 / qcomp=0.60 / qpmin=0 / qpmax=69 / qpstep=4 / cplxblur=20.0 / qblur=0.5 / vbv_maxrate=50000 / vbv_bufsize=50000 / nal_hrd=none / filler=0 / ip_ratio=1.40 / aq=1:1.00Default : ДаForced : Нет
АудиоИдентификатор : 2Формат : AC-3Формат/Информация : Audio Coding 3Коммерческое название : Dolby DigitalИдентификатор кодека : A_AC3Продолжительность : 1 ч. 7 м.Вид битрейта : ПостоянныйБитрейт : 224 Кбит/секКаналы : 2 каналаChannel layout : L RЧастота : 48,0 КГцЧастота кадров : 31,250 кадров/сек (1536 SPF)Битовая глубина : 16 битМетод сжатия : С потерямиЗадержка видео : 29 мс.Размер потока : 109 Мбайт (13%)ServiceKind/String : Complete MainDefault : ДаForced : Нет
Меню00:00:00.000 : en:Blow Your Trumpets Gabriel00:06:45.000 : en:Furor Divinus00:10:07.234 : en:Messe Noire00:14:46.968 : en:Ora Pro Nobis Lucifer00:21:00.268 : en:Amen00:24:58.902 : en:The Satanist00:31:35.069 : en:Ben Sahar00:37:07.836 : en:In the Absence ov Light00:42:05.070 : en:O Father O Satan O Sun!00:51:43.437 : en:Ov Fire and the Void00:56:34.871 : en:Conquer All01:01:27.904 : en:Chant for Ezkaton 2000

The Satanist: Cinematic Archive (Production Videos)


Треклист:
1. Blow Your Trumpets Gabriel
2. Messe Noire
3. Ora Pro Nobis Lucifer
4. The Satanist
5. Ben Sahar
6. O Father O Satan O Sun!-Качество: DVDRip-AVC
Контейнер: MKV
Видео кодек: H.264
Аудио кодек: AC3
Видео: MPEG4 AVC / 712*472 (1,85:1) / 23.97 fps / 1550 kbps
Аудио: AC3 / 224 kbps / 48.0 khz / 2 ch

MI

ОбщееУникальный идентификатор : 182005048965335524643373646989524935888 (0x88ECE5BAE7CA08FC9372154068B324D0)Полное имя : D:\Torrents\Download\Behemoth - Messe Noire. Live Satanist\03. Cinematic Archive (Production Videos).mkvФормат : MatroskaВерсия формата : Version 4Размер файла : 463 МбайтПродолжительность : 36 м. 28 с.Общий поток : 1776 Кбит/секДата кодирования : UTC 2018-11-06 10:40:02Программа кодирования : mkvmerge v7.1.0 ('Good Love') 64bit built on Jul 27 2014 13:06:55Библиотека кодирования : libebml v1.3.0 + libmatroska v1.4.1
ВидеоИдентификатор : 1Формат : AVCФормат/Информация : Advanced Video CodecПрофиль формата : High@L4.1Настройки формата : CABAC / 16 Ref FramesПараметр CABAC формата : ДаПараметр RefFrames формата : 16 кадровИдентификатор кодека : V_MPEG4/ISO/AVCПродолжительность : 36 м. 28 с.Битрейт : 1550 Кбит/секШирина : 712 пикселейВысота : 472 пикселяСоотношение сторон : 1,85:1Соотношение сторон в оригинале : 1,85:1Режим частоты кадров : ПостоянныйЧастота кадров : 23,976 (24000/1001) кадра/секЦветовое пространство : YUVСубдискретизация насыщенности : 4:2:0Битовая глубина : 8 битТип развёртки : ПрогрессивнаяБит/(Пиксели*Кадры) : 0.192Размер потока : 404 Мбайт (87%)Библиотека кодирования : x264 core 152 r2851 ba24899Настройки программы : cabac=1 / ref=16 / deblock=1:-2:-2 / analyse=0x3:0x133 / me=umh / subme=10 / psy=1 / psy_rd=1.00:0.15 / mixed_ref=1 / me_range=24 / chroma_me=1 / trellis=2 / 8x8dct=1 / cqm=0 / deadzone=21,11 / fast_pskip=1 / chroma_qp_offset=-3 / threads=6 / lookahead_threads=1 / sliced_threads=0 / nr=0 / decimate=1 / interlaced=0 / bluray_compat=0 / constrained_intra=0 / bframes=8 / b_pyramid=2 / b_adapt=2 / b_bias=0 / direct=3 / weightb=1 / open_gop=0 / weightp=2 / keyint=240 / keyint_min=23 / scenecut=40 / intra_refresh=0 / rc_lookahead=60 / rc=2pass / mbtree=1 / bitrate=1550 / ratetol=1.0 / qcomp=0.60 / qpmin=0 / qpmax=69 / qpstep=4 / cplxblur=20.0 / qblur=0.5 / vbv_maxrate=50000 / vbv_bufsize=50000 / nal_hrd=none / filler=0 / ip_ratio=1.40 / aq=1:1.00Default : ДаForced : Нет
АудиоИдентификатор : 2Формат : AC-3Формат/Информация : Audio Coding 3Коммерческое название : Dolby DigitalИдентификатор кодека : A_AC3Продолжительность : 36 м. 28 с.Вид битрейта : ПостоянныйБитрейт : 224 Кбит/секКаналы : 2 каналаChannel layout : L RЧастота : 48,0 КГцЧастота кадров : 31,250 кадров/сек (1536 SPF)Битовая глубина : 16 битМетод сжатия : С потерямиРазмер потока : 58,4 Мбайт (13%)ServiceKind/String : Music and EffectsDefault : ДаForced : Нет
Меню00:00:00.000 : en:Blow Your Trumpets Gabriel00:04:57.200 : en:Messe Noire00:10:52.934 : en:Ora Pro Nobis Lucifer00:17:25.067 : en:The Satanist00:22:05.567 : en:Ben Sahar00:28:03.401 : en:O Father O Satan O Sun!

Скриншоты



[ru-zerkalo.org]_t_5641693
Torrent: Registered ·  [ 2018-11-14 05:18 ] ·  8dfe21c2c68dccf126d845455809ae82ce3ba906

12 KB

Status: checked
Completed: 0 times
Size: 2.3 GB
Rating: 
(Votes: 0)
Say thanks: 0  Thanks
 
Похожие темы
[Profile] [PM]
Display posts from previous:    
Reply to topic

The time now is: Today 02:30

All times are GMT + 7 Hours



You cannot post new topics in this forum
You cannot reply to topics in this forum
You cannot edit your posts in this forum
You cannot delete your posts in this forum
You cannot vote in polls in this forum
You cannot attach files in this forum
You can download files in this forum