Register · 
Username: Password:
 ·  Forgot password?

(Христианская Музыка) Добрая Весть - Будите, зовите - N/A, FLAC (tracks+.cue), lossless

Reply to topic
DL-List and Torrent activity [Update пиров]
Size:  360 MB   |    Registered:  10 months 4 days   |    Completed:  0 times

Seeder not seen: Never

 
   
 
 
 
Author Message

Andrew1225 ®

Gender:

Longevity: 6 years

Posts: 17178

Post 18-Dec-2018 22:15

[Quote]

Добрая Весть / Будите, зовите
Жанр: Христианская Музыка
Год издания: N/A
Страна: Беларусь
Аудиокодек: FLAC (*.flac)
Тип рипа: tracks+.cue
Битрейт аудио: lossless
Продолжительность: 00:51:24
Источник (релизер): CD
Наличие сканов в содержимом раздачи: да
Треклист:
01. Будите, зовите
02. Счастья
03. Закрытые двери
04. Весна
05. Бог моя защита
06. Все будет иначе
07. Люблю Иисуса
08. Любовь
09. В жизни
10. Ты не один
11. Святый

Лог создания рипа

Exact Audio Copy V1.0 beta 3 from 29. August 2011
EAC extraction logfile from 9. February 2014, 3:20
Добрая Весть / Будите, зовите
Used drive : HL-DT-STDVD+-RW GT60N Adapter: 0 ID: 1
Read mode : SecureUtilize accurate stream : YesDefeat audio cache : YesMake use of C2 pointers : No
Read offset correction : 103Overread into Lead-In and Lead-Out : NoFill up missing offset samples with silence : YesDelete leading and trailing silent blocks : NoNull samples used in CRC calculations : YesUsed interface : Native Win32 interface for Win NT & 2000Gap handling : Appended to previous track
Used output format : User Defined EncoderSelected bitrate : 768 kBit/sQuality : HighAdd ID3 tag : NoCommand line compressor : C:\Program Files (x86)\Exact Audio Copy\FLAC\FLAC.EXEAdditional command line options : -V -8 -T "Genre=%genre%" -T "Artist=%artist%" -T "Title=%title%" -T "Album=%albumtitle%" -T "Date=%year%" -T "Tracknumber=%tracknr%" -T "Comment=%comment%" %source%
TOC of the extracted CD
Track | Start | Length | Start sector | End sector --------------------------------------------------------- 1 | 0:00.00 | 3:37.49 | 0 | 16323 2 | 3:37.49 | 3:55.38 | 16324 | 33986 3 | 7:33.12 | 4:53.44 | 33987 | 56005 4 | 12:26.56 | 3:51.56 | 56006 | 73386 5 | 16:18.37 | 3:44.25 | 73387 | 90211 6 | 20:02.62 | 5:28.67 | 90212 | 114878 7 | 25:31.54 | 4:04.58 | 114879 | 133236 8 | 29:36.37 | 4:43.14 | 133237 | 154475 9 | 34:19.51 | 6:19.27 | 154476 | 182927 10 | 40:39.03 | 4:20.25 | 182928 | 202452 11 | 44:59.28 | 6:25.22 | 202453 | 231349
Track 1
Filename C:\Добрая Весть - Будите, зовите (FLAC, lossless)\01 Будите, зовите.wav
Pre-gap length 0:00:02.00
Peak level 97.1 % Extraction speed 1.2 X Track quality 100.0 % Test CRC 732A2822 Copy CRC 732A2822 Copy OK
Track 2
Filename C:\Добрая Весть - Будите, зовите (FLAC, lossless)\02 Счастья.wav
Pre-gap length 0:00:01.74
Peak level 97.3 % Extraction speed 3.1 X Track quality 100.0 % Test CRC C8153D8C Copy CRC C8153D8C Copy OK
Track 3
Filename C:\Добрая Весть - Будите, зовите (FLAC, lossless)\03 Закрытые двери.wav
Pre-gap length 0:00:01.74
Peak level 100.0 % Extraction speed 3.1 X Track quality 100.0 % Test CRC E613F382 Copy CRC E613F382 Copy OK
Track 4
Filename C:\Добрая Весть - Будите, зовите (FLAC, lossless)\04 Весна.wav
Pre-gap length 0:00:01.74
Peak level 99.7 % Extraction speed 2.8 X Track quality 99.9 % Test CRC F71145B0 Copy CRC F71145B0 Copy OK
Track 5
Filename C:\Добрая Весть - Будите, зовите (FLAC, lossless)\05 Бог моя защита.wav
Pre-gap length 0:00:01.74
Peak level 100.0 % Extraction speed 3.4 X Track quality 100.0 % Test CRC 72BE1DA4 Copy CRC 72BE1DA4 Copy OK
Track 6
Filename C:\Добрая Весть - Будите, зовите (FLAC, lossless)\06 Все будет иначе.wav
Pre-gap length 0:00:01.74
Peak level 99.6 % Extraction speed 3.8 X Track quality 100.0 % Test CRC 5CB05637 Copy CRC 5CB05637 Copy OK
Track 7
Filename C:\Добрая Весть - Будите, зовите (FLAC, lossless)\07 Люблю Иисуса.wav
Pre-gap length 0:00:01.74
Peak level 96.9 % Extraction speed 4.0 X Track quality 100.0 % Test CRC D67381B3 Copy CRC D67381B3 Copy OK
Track 8
Filename C:\Добрая Весть - Будите, зовите (FLAC, lossless)\08 Любовь.wav
Pre-gap length 0:00:01.74
Peak level 99.2 % Extraction speed 3.8 X Track quality 99.9 % Test CRC F6D0FB2C Copy CRC F6D0FB2C Copy OK
Track 9
Filename C:\Добрая Весть - Будите, зовите (FLAC, lossless)\09 В жизни.wav
Pre-gap length 0:00:01.74
Peak level 98.3 % Extraction speed 4.5 X Track quality 100.0 % Test CRC 434670C3 Copy CRC 434670C3 Copy OK
Track 10
Filename C:\Добрая Весть - Будите, зовите (FLAC, lossless)\10 Ты не один.wav
Pre-gap length 0:00:01.74
Peak level 100.0 % Extraction speed 4.6 X Track quality 100.0 % Test CRC DF56DCDF Copy CRC DF56DCDF Copy OK
Track 11
Filename C:\Добрая Весть - Будите, зовите (FLAC, lossless)\11 Святый.wav
Pre-gap length 0:00:01.74
Peak level 98.6 % Extraction speed 5.0 X Track quality 100.0 % Test CRC 854249C4 Copy CRC 854249C4 Copy OK
No errors occurred
End of status report

Содержание индексной карты (.CUE)

REM GENRE "Христианская Музыка"REM DISCID 880C0C0BREM COMMENT "ExactAudioCopy v1.0b3"PERFORMER "Добрая Весть"TITLE "Будите, зовите"FILE "01 Будите, зовите.wav" WAVE TRACK 01 AUDIO TITLE "Будите, зовите" PERFORMER "Добрая Весть" INDEX 01 00:00:00 TRACK 02 AUDIO TITLE "Счастья" PERFORMER "Добрая Весть" INDEX 00 03:35:50FILE "02 Счастья.wav" WAVE INDEX 01 00:00:00 TRACK 03 AUDIO TITLE "Закрытые двери" PERFORMER "Добрая Весть" INDEX 00 03:53:39FILE "03 Закрытые двери.wav" WAVE INDEX 01 00:00:00 TRACK 04 AUDIO TITLE "Весна" PERFORMER "Добрая Весть" INDEX 00 04:51:45FILE "04 Весна.wav" WAVE INDEX 01 00:00:00 TRACK 05 AUDIO TITLE "Бог моя защита" PERFORMER "Добрая Весть" INDEX 00 03:49:57FILE "05 Бог моя защита.wav" WAVE INDEX 01 00:00:00 TRACK 06 AUDIO TITLE "Все будет иначе" PERFORMER "Добрая Весть" INDEX 00 03:42:26FILE "06 Все будет иначе.wav" WAVE INDEX 01 00:00:00 TRACK 07 AUDIO TITLE "Люблю Иисуса" PERFORMER "Добрая Весть" INDEX 00 05:26:68FILE "07 Люблю Иисуса.wav" WAVE INDEX 01 00:00:00 TRACK 08 AUDIO TITLE "Любовь" PERFORMER "Добрая Весть" INDEX 00 04:02:59FILE "08 Любовь.wav" WAVE INDEX 01 00:00:00 TRACK 09 AUDIO TITLE "В жизни" PERFORMER "Добрая Весть" INDEX 00 04:41:15FILE "09 В жизни.wav" WAVE INDEX 01 00:00:00 TRACK 10 AUDIO TITLE "Ты не один" PERFORMER "Добрая Весть" INDEX 00 06:17:28FILE "10 Ты не один.wav" WAVE INDEX 01 00:00:00 TRACK 11 AUDIO TITLE "Святый" PERFORMER "Добрая Весть" INDEX 00 04:18:26FILE "11 Святый.wav" WAVE INDEX 01 00:00:00
[ru-zerkalo.org]_t_4665929
Torrent: Registered ·  [ 2018-12-18 22:10 ] ·  c66ab7759b44743b19ca2d3114bc98fa5302e1e7

16 KB

Status: checked
Completed: 0 times
Size: 360 MB
Rating: 
(Votes: 0)
Say thanks: 0  Thanks
 
Похожие темы
[Profile] [PM]
Display posts from previous:    
Reply to topic

The time now is: Today 07:32

All times are GMT + 7 Hours



You cannot post new topics in this forum
You cannot reply to topics in this forum
You cannot edit your posts in this forum
You cannot delete your posts in this forum
You cannot vote in polls in this forum
You cannot attach files in this forum
You can download files in this forum