Register · 
Username: Password:
 ·  Forgot password?

[DTSCD][UP] Крематорий - Antiquus - 2018 (Rock)

Reply to topic
DL-List and Torrent activity [Update пиров]
Size:  395 MB   |    Registered:  1 year   |    Completed:  2 times

Seeder not seen: 5 months 24 days

 
   
 
 
 
Author Message

manic-manic ®

Gender:

Longevity: 6 years 3 months

Posts: 14192

Post 27-Dec-2018 08:56

[Quote]

Крематорий / Antiquus
Формат записи/Источник записи: [DTSCD][UP]
Наличие водяных знаков: Нет
Год издания/переиздания диска: 2018
Жанр: Rock
Продолжительность: 00:39:07
Наличие сканов в содержимом раздачи: Только обложка альбома
Треклист:
1. Крематорий - Чёрная пятница
2. Крематорий - Джентльмены и леди
3. Крематорий - Сперматозавр-чемпион
4. Крематорий - Ты была той женщиной
5. Крематорий - Крылатые слоны
6. Крематорий - Катаклизм
7. Крематорий - Змеиный отель
8. Крематорий - Стрёмный корабль
9. Крематорий - Моя соседка
10. Крематорий - Крематорий
11. Крематорий - Кащенко
12. Крематорий - Брюс-колдун
13. Крематорий - Орёл
14. Крематорий - Глотатель портвейна
15. Крематорий - Сладкая жизнь
16. Крематорий - Ты бежала за мной
17. Крематорий - Я тихо и скромно
Контейнер: Wav
Тип рипа: image+.cue
Разрядность: 16/44,1
Формат: DTS
Количество каналов: 5.1

Лог проверки качества

foobar2000 1.4.1 / Замер динамического диапазона (DR) 1.1.1Дата отчёта: 2018-12-26 11:13:42
--------------------------------------------------------------------------------Анализ: Крематорий / Antiquus--------------------------------------------------------------------------------
DR Пики RMS Продолжительность трека--------------------------------------------------------------------------------DR8 -0.62 дБ -11.54 дБ 2:59 01-Чёрная пятница (DTS)DR8 -0.39 дБ -10.29 дБ 1:56 02-Джентльмены и леди (DTS)DR9 -0.14 дБ -11.94 дБ 3:22 03-Сперматозавр-чемпион (DTS)DR8 -0.61 дБ -11.87 дБ 1:28 04-Ты была той женщиной (DTS)DR10 0.00 дБ -12.95 дБ 3:35 05-Крылатые слоны (DTS)DR8 -0.74 дБ -12.09 дБ 1:24 06-Катаклизм (DTS)DR8 -0.45 дБ -11.04 дБ 2:59 07-Змеиный отель (DTS)DR9 -0.41 дБ -11.94 дБ 1:28 08-Стрёмный корабль (DTS)DR8 0.00 дБ -11.23 дБ 2:57 09-Моя соседка (DTS)DR10 -0.34 дБ -15.32 дБ 1:39 10-Крематорий (DTS)DR10 -0.32 дБ -13.78 дБ 3:06 11-Кащенко (DTS)DR8 -0.68 дБ -11.17 дБ 2:36 12-Брюс-колдун (DTS)DR9 -0.89 дБ -14.34 дБ 0:49 13-Орёл (DTS)DR8 -0.42 дБ -12.28 дБ 2:30 14-Глотатель портвейна (DTS)DR8 -0.56 дБ -11.98 дБ 2:34 15-Сладкая жизнь (DTS)DR8 -0.81 дБ -13.32 дБ 0:59 16-Ты бежала за мной (DTS)DR7 -0.35 дБ -10.55 дБ 2:45 17-Я тихо и скромно (DTS)--------------------------------------------------------------------------------
Количество треков: 17Реальные значения DR: DR9
Метод получения апмикса: Adobe Audition: fft фильтр, экстрактор центрального канала; Izotop Ozone.
Источник (релизер): [url=tracker.php?rid=15554122]DamirHaan[/url]
Источник рипа: Rysslann
[ru-zerkalo.org]_t_5665384
Torrent: Registered ·  [ 2018-12-27 08:56 ] ·  32ed12635bad8a25df58bdd186c737043b2f5073

16 KB

Status: checked
Completed: 2 times
Size: 395 MB
Rating: 
(Votes: 0)
Say thanks: 0  Thanks
 
Похожие темы
[Profile] [PM]
Display posts from previous:    
Reply to topic

The time now is: Today 19:18

All times are GMT + 7 Hours



You cannot post new topics in this forum
You cannot reply to topics in this forum
You cannot edit your posts in this forum
You cannot delete your posts in this forum
You cannot vote in polls in this forum
You cannot attach files in this forum
You can download files in this forum