Register · 
Username: Password:
 ·  Forgot password?

Vader - Night Of The Apocalypse [2004, Death Metal, Thrash Metal, DVDRip-AVC]

Reply to topic
DL-List and Torrent activity [Update пиров]
Size:  1.76 GB   |    Registered:  10 months 25 days   |    Completed:  0 times

Seeder not seen: Never

 
   
 
 
 
Author Message

Makci ®

Gender:

Longevity: 6 years 2 months

Posts: 12410

Post 15-Jan-2019 21:29

[Quote]

Night of the Apocalypse- --Страна

Жанр
Death Metal, Thrash Metal
Продолжительность
00:58:30+00:24:11+00:23:03
Год выпуска
2004
Описание
Night of the Apocalypse is the second live performance recording by Polish death metal band Vader.[4] It was released on October 25, 2004 by Metal Mind. Night of the Apocalypse main show was recorded at Łeg Studio in Kraków on March 25, 2003. Bonus material consists fragments of Vader performance recorded at Metalmania Festival in Spodek in Katowice on April 5, 2003, and bands show as Slipknot & Metallica support recorded at Silesian Stadium in Chorzów on May 31, 2004.--Источник
Vader -Night Of The Apocalypse [2004, Death Metal, DVD9]--

01. Live at Leg Studio (Main Performance)


Треклист
01. Intro1/Epitaph
02. Torch of War
03. Xeper
04. Carnal
05. Reign Forever World
06. Intro 2 / Breath of Centuries
07. Silent Empire
08. Black to the Blind
09. Intro 3 / Revelations of Black Moses
10. North
11. Nomad
12. Sothis
13. Raining Blood-Качество
DVDRip-AVC
Контейнер
MKV
Видео кодек
H.264
Аудио кодек
AC3
Видео
MPEG4 AVC / 688*464 (16:9) / 29.97 fps / 2200 kbps
Аудио
AC3 / 224 kbps / 48.0 khz / 2 ch

MI

ОбщееУникальный идентификатор : 175666542025817275740639681939137257966 (0x84282535C0A3B696ABB7386C9B7261EE)Полное имя : D:\Video\Vader- Night Of The Apocalypse\01. Live at Leg Studio (Main Performance).mkvФормат : MatroskaВерсия формата : Version 4Размер файла : 1015 МбайтПродолжительность : 58 м. 30 с.Общий поток : 2426 Кбит/секДата кодирования : UTC 2019-01-08 15:34:11Программа кодирования : mkvmerge v7.1.0 ('Good Love') 64bit built on Jul 27 2014 13:06:55Библиотека кодирования : libebml v1.3.0 + libmatroska v1.4.1
ВидеоИдентификатор : 1Формат : AVCФормат/Информация : Advanced Video CodecПрофиль формата : High@L4.1Настройки формата : CABAC / 16 Ref FramesПараметр CABAC формата : ДаПараметр RefFrames формата : 16 кадровИдентификатор кодека : V_MPEG4/ISO/AVCПродолжительность : 58 м. 30 с.Битрейт : 2200 Кбит/секШирина : 688 пикселейВысота : 464 пикселяСоотношение сторон : 16:9Соотношение сторон в оригинале : 16:9Режим частоты кадров : ПостоянныйЧастота кадров : 29,970 (30000/1001) кадров/секЦветовое пространство : YUVСубдискретизация насыщенности : 4:2:0Битовая глубина : 8 битТип развёртки : ПрогрессивнаяБит/(Пиксели*Кадры) : 0.230Размер потока : 921 Мбайт (91%)Библиотека кодирования : x264 core 152 r2851 ba24899Настройки программы : cabac=1 / ref=16 / deblock=1:-2:-2 / analyse=0x3:0x133 / me=umh / subme=10 / psy=1 / psy_rd=1.00:0.15 / mixed_ref=1 / me_range=24 / chroma_me=1 / trellis=2 / 8x8dct=1 / cqm=0 / deadzone=21,11 / fast_pskip=1 / chroma_qp_offset=-3 / threads=6 / lookahead_threads=1 / sliced_threads=0 / nr=0 / decimate=1 / interlaced=0 / bluray_compat=0 / constrained_intra=0 / bframes=8 / b_pyramid=2 / b_adapt=2 / b_bias=0 / direct=3 / weightb=1 / open_gop=0 / weightp=2 / keyint=300 / keyint_min=29 / scenecut=40 / intra_refresh=0 / rc_lookahead=60 / rc=2pass / mbtree=1 / bitrate=2200 / ratetol=1.0 / qcomp=0.60 / qpmin=0 / qpmax=69 / qpstep=4 / cplxblur=20.0 / qblur=0.5 / vbv_maxrate=50000 / vbv_bufsize=50000 / nal_hrd=none / filler=0 / ip_ratio=1.40 / aq=1:1.00Default : ДаForced : Нет
АудиоИдентификатор : 2Формат : AC-3Формат/Информация : Audio Coding 3Коммерческое название : Dolby DigitalИдентификатор кодека : A_AC3Продолжительность : 58 м. 30 с.Вид битрейта : ПостоянныйБитрейт : 224 Кбит/секКаналы : 2 каналаChannel layout : L RЧастота : 48,0 КГцЧастота кадров : 31,250 кадров/сек (1536 SPF)Битовая глубина : 16 битМетод сжатия : С потерямиРазмер потока : 93,8 Мбайт (9%)ServiceKind/String : Complete MainDefault : ДаForced : Нет
Меню00:00:00.000 : en:Intro1/Epitaph00:05:47.100 : en:Torch of War00:08:07.867 : en:Xeper00:12:49.000 : en:Carnal00:15:13.033 : en:Reign Forever World00:19:10.333 : en:Intro 2 / Breath of Centuries00:25:06.934 : en:Silent Empire00:29:14.168 : en:Black to the Blind00:33:19.902 : en:Intro 3 / Revelations of Black Moses00:42:07.536 : en:North00:44:08.603 : en:Nomad00:49:04.370 : en:Sothis00:53:42.437 : en:Raining Blood

Скриншоты



02. Metalmania 2003


Треклист
01. Intro
02. Xeper
03. Epitaph
04. Cold Demon
05. Nomad
06. Wings
07. Vicious Circle-Качество
DVDRip-AVC
Контейнер
MKV
Видео кодек
H.264
Аудио кодек
AC3
Видео
MPEG4 AVC / 696*472 (16:9) / 29.97 fps / 2000 kbps
Аудио
AC3 / 224 kbps / 48.0 khz / 2 ch

MI

ОбщееУникальный идентификатор : 195614300974239036401741038636285550218 (0x9329F1A8A6C35D499C5DDD3629C7DE8A)Полное имя : D:\Video\Vader- Night Of The Apocalypse\02. Metalmania 2003.mkvФормат : MatroskaВерсия формата : Version 4Размер файла : 385 МбайтПродолжительность : 24 м. 11 с.Общий поток : 2226 Кбит/секДата кодирования : UTC 2019-01-07 18:29:57Программа кодирования : mkvmerge v7.1.0 ('Good Love') 64bit built on Jul 27 2014 13:06:55Библиотека кодирования : libebml v1.3.0 + libmatroska v1.4.1
ВидеоИдентификатор : 1Формат : AVCФормат/Информация : Advanced Video CodecПрофиль формата : High@L4.1Настройки формата : CABAC / 16 Ref FramesПараметр CABAC формата : ДаПараметр RefFrames формата : 16 кадровИдентификатор кодека : V_MPEG4/ISO/AVCПродолжительность : 24 м. 11 с.Битрейт : 2000 Кбит/секШирина : 696 пикселейВысота : 472 пикселяСоотношение сторон : 16:9Режим частоты кадров : ПостоянныйЧастота кадров : 29,970 (30000/1001) кадров/секЦветовое пространство : YUVСубдискретизация насыщенности : 4:2:0Битовая глубина : 8 битТип развёртки : ПрогрессивнаяБит/(Пиксели*Кадры) : 0.203Размер потока : 346 Мбайт (90%)Библиотека кодирования : x264 core 152 r2851 ba24899Настройки программы : cabac=1 / ref=16 / deblock=1:-2:-2 / analyse=0x3:0x133 / me=umh / subme=10 / psy=1 / psy_rd=1.00:0.15 / mixed_ref=1 / me_range=24 / chroma_me=1 / trellis=2 / 8x8dct=1 / cqm=0 / deadzone=21,11 / fast_pskip=1 / chroma_qp_offset=-3 / threads=6 / lookahead_threads=1 / sliced_threads=0 / nr=0 / decimate=1 / interlaced=0 / bluray_compat=0 / constrained_intra=0 / bframes=8 / b_pyramid=2 / b_adapt=2 / b_bias=0 / direct=3 / weightb=1 / open_gop=0 / weightp=2 / keyint=300 / keyint_min=29 / scenecut=40 / intra_refresh=0 / rc_lookahead=60 / rc=2pass / mbtree=1 / bitrate=2000 / ratetol=1.0 / qcomp=0.60 / qpmin=0 / qpmax=69 / qpstep=4 / cplxblur=20.0 / qblur=0.5 / vbv_maxrate=50000 / vbv_bufsize=50000 / nal_hrd=none / filler=0 / ip_ratio=1.40 / aq=1:1.00Default : ДаForced : Нет
АудиоИдентификатор : 2Формат : AC-3Формат/Информация : Audio Coding 3Коммерческое название : Dolby DigitalИдентификатор кодека : A_AC3Продолжительность : 24 м. 10 с.Вид битрейта : ПостоянныйБитрейт : 224 Кбит/секКаналы : 2 каналаChannel layout : L RЧастота : 48,0 КГцЧастота кадров : 31,250 кадров/сек (1536 SPF)Битовая глубина : 16 битМетод сжатия : С потерямиРазмер потока : 38,7 Мбайт (10%)ServiceKind/String : Complete MainDefault : ДаForced : Нет
Меню00:00:00.000 : en:Intro00:01:10.000 : en:Xeper00:05:21.934 : en:Epitaph00:09:34.868 : en:Cold Demon00:11:59.435 : en:Nomad00:16:04.102 : en:Wings00:20:44.769 : en:Vicious Circle

Скриншоты



03. Supporting Slipknot & Metallica 2004


Треклист
01. Sothis
02. Crucified Ones
03. Epitaph
04. Wings
05. Xeper
06. Carnal-Качество
DVDRip-AVC
Контейнер
MKV
Видео кодек
H.264
Аудио кодек
AC3
Видео
MPEG4 AVC / 640*432 (4:3) / 29.97 fps / 2200 kbps
Аудио
AC3 / 224 kbps / 48.0 khz / 2 ch

MI

ОбщееУникальный идентификатор : 184230602463313457408380327178193506519 (0x8A9985FD4208F478BD6BAA22D6A690D7)Полное имя : D:\Video\Vader- Night Of The Apocalypse\03. Supporting Slipknot & Metallica 2004.mkvФормат : MatroskaВерсия формата : Version 4Размер файла : 400 МбайтПродолжительность : 23 м. 3 с.Общий поток : 2426 Кбит/секДата кодирования : UTC 2019-01-08 09:42:51Программа кодирования : mkvmerge v7.1.0 ('Good Love') 64bit built on Jul 27 2014 13:06:55Библиотека кодирования : libebml v1.3.0 + libmatroska v1.4.1
ВидеоИдентификатор : 1Формат : AVCФормат/Информация : Advanced Video CodecПрофиль формата : High@L4.1Настройки формата : CABAC / 16 Ref FramesПараметр CABAC формата : ДаПараметр RefFrames формата : 16 кадровИдентификатор кодека : V_MPEG4/ISO/AVCПродолжительность : 23 м. 3 с.Битрейт : 2200 Кбит/секШирина : 640 пикселейВысота : 432 пикселяСоотношение сторон : 4:3Соотношение сторон в оригинале : 4:3Режим частоты кадров : ПостоянныйЧастота кадров : 29,970 (30000/1001) кадров/секЦветовое пространство : YUVСубдискретизация насыщенности : 4:2:0Битовая глубина : 8 битТип развёртки : ПрогрессивнаяБит/(Пиксели*Кадры) : 0.266Размер потока : 363 Мбайт (91%)Библиотека кодирования : x264 core 152 r2851 ba24899Настройки программы : cabac=1 / ref=16 / deblock=1:-2:-2 / analyse=0x3:0x133 / me=umh / subme=10 / psy=1 / psy_rd=1.00:0.15 / mixed_ref=1 / me_range=24 / chroma_me=1 / trellis=2 / 8x8dct=1 / cqm=0 / deadzone=21,11 / fast_pskip=1 / chroma_qp_offset=-3 / threads=6 / lookahead_threads=1 / sliced_threads=0 / nr=0 / decimate=1 / interlaced=0 / bluray_compat=0 / constrained_intra=0 / bframes=8 / b_pyramid=2 / b_adapt=2 / b_bias=0 / direct=3 / weightb=1 / open_gop=0 / weightp=2 / keyint=300 / keyint_min=29 / scenecut=40 / intra_refresh=0 / rc_lookahead=60 / rc=2pass / mbtree=1 / bitrate=2200 / ratetol=1.0 / qcomp=0.60 / qpmin=0 / qpmax=69 / qpstep=4 / cplxblur=20.0 / qblur=0.5 / vbv_maxrate=50000 / vbv_bufsize=50000 / nal_hrd=none / filler=0 / ip_ratio=1.40 / aq=1:1.00Default : ДаForced : Нет
АудиоИдентификатор : 2Формат : AC-3Формат/Информация : Audio Coding 3Коммерческое название : Dolby DigitalИдентификатор кодека : A_AC3Продолжительность : 23 м. 2 с.Вид битрейта : ПостоянныйБитрейт : 224 Кбит/секКаналы : 2 каналаChannel layout : L RЧастота : 48,0 КГцЧастота кадров : 31,250 кадров/сек (1536 SPF)Битовая глубина : 16 битМетод сжатия : С потерямиРазмер потока : 36,9 Мбайт (9%)ServiceKind/String : Complete MainDefault : ДаForced : Нет
Меню00:00:00.000 : en:Sothis00:05:30.834 : en:Crucified Ones00:08:50.001 : en:Epitaph00:12:39.201 : en:Wings00:15:59.368 : en:Xeper00:19:33.702 : en:Carnal
Vader - More Vision And The Voice [1998/2002, Death Metal, Thrash Metal, DVDRip-AVC]
[ru-zerkalo.org]_t_5672824
Torrent: Registered ·  [ 2019-01-15 21:27 ] ·  30758df19f7df5d24ae0d9af544e3e6f7244b338

18 KB

Status: checked
Completed: 0 times
Size: 1.76 GB
Rating: 
(Votes: 0)
Say thanks: 0  Thanks
 
Похожие темы
[Profile] [PM]
Display posts from previous:    
Reply to topic

The time now is: Today 02:31

All times are GMT + 7 Hours



You cannot post new topics in this forum
You cannot reply to topics in this forum
You cannot edit your posts in this forum
You cannot delete your posts in this forum
You cannot vote in polls in this forum
You cannot attach files in this forum
You can download files in this forum