Register · 
Username: Password:
 ·  Forgot password?

(Smooth Jazz, Crossover Jazz, Soul Jazz) [CD] VA - Cool Heat (The Best Of CTI Records) - 2017 (2CD), FLAC (tracks+.cue), lossless

Reply to topic
DL-List and Torrent activity [Update пиров]
Size:  995 MB   |    Registered:  10 months 23 days   |    Completed:  3 times

Seeder not seen: 5 months 24 days

 
   
 
 
 
Author Message

ANTON1404 ®

Gender:

Longevity: 6 years 2 months

Posts: 18271

Post 20-Jan-2019 20:17

[Quote]

Cool Heat (The Best Of CTI Records)
Жанр: Smooth Jazz, Crossover Jazz, Soul Jazz
Носитель: CD
Страна-производитель диска (релиза): EU
Год издания: 2017
Издатель (лейбл): Robinsongs
Номер по каталогу: ROBIN18CDD
Аудиокодек: FLAC (*.flac)
Тип рипа: tracks+.cue
Битрейт аудио: lossless
Продолжительность: 02:36:39
Источник (релизер): artmuss
Наличие сканов в содержимом раздачи: да

CD1

01. Deodato - Also Sprach Zarathustra
02. Lalo Schifrin - Jaws
03. Esther Phillips - What A Difference A Day Makes
04. Idris Muhammad - Could Heaven Ever Be Like This
05. Bob James - Westchester Lady
06. Dave Matthews - Shoogie Wanna Boogie
07. Fuse One - Grand Prix
08. Hubert Laws - The Chicago Theme (Love Loop)
09. Ron Carter - Barreta's Theme (Keep Your Eye On The Sparrow)
10. Johnny Hammond - Breakout
11. Hank Crawford - Wildflower
12. Lonnie Smith - Mama Wailer
13. Patti Austin - Say You Love Me

Лог создания рипа

Exact Audio Copy V1.3 from 2. September 2016
EAC extraction logfile from 2. April 2018, 18:06
Various Artists / Cool Heat: The Best of CTI Records (Disc 1)
Used drive : HL-DT-STDVDRAM GH24NSC0 Adapter: 1 ID: 0
Read mode : SecureUtilize accurate stream : YesDefeat audio cache : YesMake use of C2 pointers : No
Read offset correction : 6Overread into Lead-In and Lead-Out : NoFill up missing offset samples with silence : YesDelete leading and trailing silent blocks : NoNull samples used in CRC calculations : YesUsed interface : Native Win32 interface for Win NT & 2000Gap handling : Appended to previous track
Used output format : Internal WAV RoutinesSample format : 44.100 Hz; 16 Bit; Stereo
TOC of the extracted CD
Track | Start | Length | Start sector | End sector --------------------------------------------------------- 1 | 0:00.00 | 9:04.08 | 0 | 40807 2 | 9:04.08 | 6:03.14 | 40808 | 68046 3 | 15:07.22 | 4:31.29 | 68047 | 88400 4 | 19:38.51 | 8:38.27 | 88401 | 127277 5 | 28:17.03 | 7:27.01 | 127278 | 160803 6 | 35:44.04 | 5:40.12 | 160804 | 186315 7 | 41:24.16 | 5:18.56 | 186316 | 210221 8 | 46:42.72 | 5:37.12 | 210222 | 235508 9 | 52:20.09 | 3:25.67 | 235509 | 250950 10 | 55:46.01 | 4:46.25 | 250951 | 272425 11 | 60:32.26 | 3:55.40 | 272426 | 290090 12 | 64:27.66 | 6:18.00 | 290091 | 318440 13 | 70:45.66 | 6:07.45 | 318441 | 346010
Track 1
Filename H:\VA - Cool Heat - The Best Of CTI Records\cd 1\01. Eumir Deodato,Deodato - Also Sprach Zarathustra.wav
Pre-gap length 0:00:02.00
Peak level 100.0 % Extraction speed 5.2 X Track quality 100.0 % Test CRC F58C0B0F Copy CRC F58C0B0F Accurately ripped (confidence 1) [0BA5C4FD] (AR v2) Copy OK
Track 2
Filename H:\VA - Cool Heat - The Best Of CTI Records\cd 1\02. Lalo Schifrin - Jaws.wav
Pre-gap length 0:00:02.16
Peak level 100.0 % Extraction speed 5.1 X Track quality 99.9 % Test CRC DC728E2E Copy CRC DC728E2E Accurately ripped (confidence 1) [1E4B8071] (AR v2) Copy OK
Track 3
Filename H:\VA - Cool Heat - The Best Of CTI Records\cd 1\03. Esther Phillips - What a Difference a Day Makes.wav
Pre-gap length 0:00:02.16
Peak level 100.0 % Extraction speed 6.1 X Track quality 100.0 % Test CRC D647CB6C Copy CRC D647CB6C Accurately ripped (confidence 1) [8A846240] (AR v2) Copy OK
Track 4
Filename H:\VA - Cool Heat - The Best Of CTI Records\cd 1\04. Idris Muhammad - Could Heaven Ever Be Like This.wav
Pre-gap length 0:00:02.16
Peak level 100.0 % Extraction speed 6.9 X Track quality 100.0 % Test CRC A0BCEE2E Copy CRC A0BCEE2E Accurately ripped (confidence 1) [DE95596E] (AR v2) Copy OK
Track 5
Filename H:\VA - Cool Heat - The Best Of CTI Records\cd 1\05. Bob James - Westchester Lady.wav
Pre-gap length 0:00:02.16
Peak level 100.0 % Extraction speed 7.4 X Track quality 100.0 % Test CRC F6CFAEB4 Copy CRC F6CFAEB4 Accurately ripped (confidence 1) [3C3A62CF] (AR v2) Copy OK
Track 6
Filename H:\VA - Cool Heat - The Best Of CTI Records\cd 1\06. Dave Matthews - Shoogie Wanna Boogie.wav
Pre-gap length 0:00:02.16
Peak level 100.0 % Extraction speed 7.5 X Track quality 100.0 % Test CRC 0D0C24A8 Copy CRC 0D0C24A8 Accurately ripped (confidence 1) [F8C1D8EE] (AR v2) Copy OK
Track 7
Filename H:\VA - Cool Heat - The Best Of CTI Records\cd 1\07. Fuse One - Grand Prix.wav
Pre-gap length 0:00:02.16
Peak level 100.0 % Extraction speed 7.9 X Track quality 100.0 % Test CRC 25390E2B Copy CRC 25390E2B Accurately ripped (confidence 1) [5364DAD6] (AR v2) Copy OK
Track 8
Filename H:\VA - Cool Heat - The Best Of CTI Records\cd 1\08. Hubert Laws - The Chicago Theme (Love Loop).wav
Pre-gap length 0:00:02.16
Peak level 100.0 % Extraction speed 8.2 X Track quality 100.0 % Test CRC 7E963765 Copy CRC 7E963765 Accurately ripped (confidence 1) [DA3E0062] (AR v2) Copy OK
Track 9
Filename H:\VA - Cool Heat - The Best Of CTI Records\cd 1\09. Ron Carter - Barreta’s Theme (Keep Your Eye on the Sparrow).wav
Pre-gap length 0:00:02.16
Peak level 100.0 % Extraction speed 8.0 X Track quality 100.0 % Test CRC D727BF58 Copy CRC D727BF58 Accurately ripped (confidence 1) [FAE6222A] (AR v2) Copy OK
Track 10
Filename H:\VA - Cool Heat - The Best Of CTI Records\cd 1\10. Johnny Hammond - Breakout.wav
Pre-gap length 0:00:02.16
Peak level 100.0 % Extraction speed 8.4 X Track quality 100.0 % Test CRC 025D160E Copy CRC 025D160E Accurately ripped (confidence 1) [24C1D636] (AR v2) Copy OK
Track 11
Filename H:\VA - Cool Heat - The Best Of CTI Records\cd 1\11. Hank Crawford - Wildflower.wav
Pre-gap length 0:00:02.16
Peak level 89.1 % Extraction speed 8.5 X Track quality 100.0 % Test CRC 55CBF066 Copy CRC 55CBF066 Accurately ripped (confidence 1) [53D831F0] (AR v2) Copy OK
Track 12
Filename H:\VA - Cool Heat - The Best Of CTI Records\cd 1\12. Lonnie Smith - Mama Wailer.wav
Pre-gap length 0:00:02.16
Peak level 100.0 % Extraction speed 9.2 X Track quality 100.0 % Test CRC 69F5C41A Copy CRC 69F5C41A Accurately ripped (confidence 1) [80D14446] (AR v2) Copy OK
Track 13
Filename H:\VA - Cool Heat - The Best Of CTI Records\cd 1\13. Patti Austin - Say You Love Me.wav
Pre-gap length 0:00:02.16
Peak level 100.0 % Extraction speed 9.4 X Track quality 100.0 % Test CRC EC6C28E2 Copy CRC EC6C28E2 Accurately ripped (confidence 1) [53181E20] (AR v2) Copy OK
All tracks accurately ripped
No errors occurred
End of status report
---- CUETools DB Plugin V2.1.6
[CTDB TOCID: mc8edi5xLGyllvOcXm3nucgITyI-] foundSubmit result: already submittedTrack | CTDB Status 1 | (4/4) Accurately ripped 2 | (4/4) Accurately ripped 3 | (4/4) Accurately ripped 4 | (4/4) Accurately ripped 5 | (4/4) Accurately ripped 6 | (4/4) Accurately ripped 7 | (4/4) Accurately ripped 8 | (4/4) Accurately ripped 9 | (4/4) Accurately ripped 10 | (4/4) Accurately ripped 11 | (4/4) Accurately ripped 12 | (4/4) Accurately ripped 13 | (4/4) Accurately ripped
==== Log checksum 185A5664A4AEF27CFB13FE5D963FFE9B0B86861C0B2F6DC422319190A0B3E73D ====
------------------------------------------------------------
Exact Audio Copy V1.3 from 2. September 2016
EAC extraction logfile from 2. April 2018, 18:06
Various Artists / Cool Heat: The Best of CTI Records (Disc 1)
Used drive : HL-DT-STDVDRAM GH24NSC0 Adapter: 1 ID: 0
Read mode : SecureUtilize accurate stream : YesDefeat audio cache : YesMake use of C2 pointers : No
Read offset correction : 6Overread into Lead-In and Lead-Out : NoFill up missing offset samples with silence : YesDelete leading and trailing silent blocks : NoNull samples used in CRC calculations : YesUsed interface : Native Win32 interface for Win NT & 2000Gap handling : Appended to previous track
Used output format : Internal WAV RoutinesSample format : 44.100 Hz; 16 Bit; Stereo
TOC of the extracted CD
Track | Start | Length | Start sector | End sector --------------------------------------------------------- 1 | 0:00.00 | 9:04.08 | 0 | 40807 2 | 9:04.08 | 6:03.14 | 40808 | 68046 3 | 15:07.22 | 4:31.29 | 68047 | 88400 4 | 19:38.51 | 8:38.27 | 88401 | 127277 5 | 28:17.03 | 7:27.01 | 127278 | 160803 6 | 35:44.04 | 5:40.12 | 160804 | 186315 7 | 41:24.16 | 5:18.56 | 186316 | 210221 8 | 46:42.72 | 5:37.12 | 210222 | 235508 9 | 52:20.09 | 3:25.67 | 235509 | 250950 10 | 55:46.01 | 4:46.25 | 250951 | 272425 11 | 60:32.26 | 3:55.40 | 272426 | 290090 12 | 64:27.66 | 6:18.00 | 290091 | 318440 13 | 70:45.66 | 6:07.45 | 318441 | 346010
Track 1
Filename H:\VA - Cool Heat - The Best Of CTI Records\cd 1\01. Eumir Deodato,Deodato - Also Sprach Zarathustra.wav
Pre-gap length 0:00:02.00
Peak level 100.0 % Extraction speed 5.2 X Track quality 100.0 % Test CRC F58C0B0F Copy CRC F58C0B0F Accurately ripped (confidence 1) [0BA5C4FD] (AR v2) Copy OK
Track 2
Filename H:\VA - Cool Heat - The Best Of CTI Records\cd 1\02. Lalo Schifrin - Jaws.wav
Pre-gap length 0:00:02.16
Peak level 100.0 % Extraction speed 5.1 X Track quality 99.9 % Test CRC DC728E2E Copy CRC DC728E2E Accurately ripped (confidence 1) [1E4B8071] (AR v2) Copy OK
Track 3
Filename H:\VA - Cool Heat - The Best Of CTI Records\cd 1\03. Esther Phillips - What a Difference a Day Makes.wav
Pre-gap length 0:00:02.16
Peak level 100.0 % Extraction speed 6.1 X Track quality 100.0 % Test CRC D647CB6C Copy CRC D647CB6C Accurately ripped (confidence 1) [8A846240] (AR v2) Copy OK
Track 4
Filename H:\VA - Cool Heat - The Best Of CTI Records\cd 1\04. Idris Muhammad - Could Heaven Ever Be Like This.wav
Pre-gap length 0:00:02.16
Peak level 100.0 % Extraction speed 6.9 X Track quality 100.0 % Test CRC A0BCEE2E Copy CRC A0BCEE2E Accurately ripped (confidence 1) [DE95596E] (AR v2) Copy OK
Track 5
Filename H:\VA - Cool Heat - The Best Of CTI Records\cd 1\05. Bob James - Westchester Lady.wav
Pre-gap length 0:00:02.16
Peak level 100.0 % Extraction speed 7.4 X Track quality 100.0 % Test CRC F6CFAEB4 Copy CRC F6CFAEB4 Accurately ripped (confidence 1) [3C3A62CF] (AR v2) Copy OK
Track 6
Filename H:\VA - Cool Heat - The Best Of CTI Records\cd 1\06. Dave Matthews - Shoogie Wanna Boogie.wav
Pre-gap length 0:00:02.16
Peak level 100.0 % Extraction speed 7.5 X Track quality 100.0 % Test CRC 0D0C24A8 Copy CRC 0D0C24A8 Accurately ripped (confidence 1) [F8C1D8EE] (AR v2) Copy OK
Track 7
Filename H:\VA - Cool Heat - The Best Of CTI Records\cd 1\07. Fuse One - Grand Prix.wav
Pre-gap length 0:00:02.16
Peak level 100.0 % Extraction speed 7.9 X Track quality 100.0 % Test CRC 25390E2B Copy CRC 25390E2B Accurately ripped (confidence 1) [5364DAD6] (AR v2) Copy OK
Track 8
Filename H:\VA - Cool Heat - The Best Of CTI Records\cd 1\08. Hubert Laws - The Chicago Theme (Love Loop).wav
Pre-gap length 0:00:02.16
Peak level 100.0 % Extraction speed 8.2 X Track quality 100.0 % Test CRC 7E963765 Copy CRC 7E963765 Accurately ripped (confidence 1) [DA3E0062] (AR v2) Copy OK
Track 9
Filename H:\VA - Cool Heat - The Best Of CTI Records\cd 1\09. Ron Carter - Barreta’s Theme (Keep Your Eye on the Sparrow).wav
Pre-gap length 0:00:02.16
Peak level 100.0 % Extraction speed 8.0 X Track quality 100.0 % Test CRC D727BF58 Copy CRC D727BF58 Accurately ripped (confidence 1) [FAE6222A] (AR v2) Copy OK
Track 10
Filename H:\VA - Cool Heat - The Best Of CTI Records\cd 1\10. Johnny Hammond - Breakout.wav
Pre-gap length 0:00:02.16
Peak level 100.0 % Extraction speed 8.4 X Track quality 100.0 % Test CRC 025D160E Copy CRC 025D160E Accurately ripped (confidence 1) [24C1D636] (AR v2) Copy OK
Track 11
Filename H:\VA - Cool Heat - The Best Of CTI Records\cd 1\11. Hank Crawford - Wildflower.wav
Pre-gap length 0:00:02.16
Peak level 89.1 % Extraction speed 8.5 X Track quality 100.0 % Test CRC 55CBF066 Copy CRC 55CBF066 Accurately ripped (confidence 1) [53D831F0] (AR v2) Copy OK
Track 12
Filename H:\VA - Cool Heat - The Best Of CTI Records\cd 1\12. Lonnie Smith - Mama Wailer.wav
Pre-gap length 0:00:02.16
Peak level 100.0 % Extraction speed 9.2 X Track quality 100.0 % Test CRC 69F5C41A Copy CRC 69F5C41A Accurately ripped (confidence 1) [80D14446] (AR v2) Copy OK
Track 13
Filename H:\VA - Cool Heat - The Best Of CTI Records\cd 1\13. Patti Austin - Say You Love Me.wav
Pre-gap length 0:00:02.16
Peak level 100.0 % Extraction speed 9.4 X Track quality 100.0 % Test CRC EC6C28E2 Copy CRC EC6C28E2 Accurately ripped (confidence 1) [53181E20] (AR v2) Copy OK
All tracks accurately ripped
No errors occurred
End of status report
---- CUETools DB Plugin V2.1.6
[CTDB TOCID: mc8edi5xLGyllvOcXm3nucgITyI-] foundSubmit result: already submittedTrack | CTDB Status 1 | (4/4) Accurately ripped 2 | (4/4) Accurately ripped 3 | (4/4) Accurately ripped 4 | (4/4) Accurately ripped 5 | (4/4) Accurately ripped 6 | (4/4) Accurately ripped 7 | (4/4) Accurately ripped 8 | (4/4) Accurately ripped 9 | (4/4) Accurately ripped 10 | (4/4) Accurately ripped 11 | (4/4) Accurately ripped 12 | (4/4) Accurately ripped 13 | (4/4) Accurately ripped
==== Log checksum 185A5664A4AEF27CFB13FE5D963FFE9B0B86861C0B2F6DC422319190A0B3E73D ====

Содержание индексной карты (.CUE)

REM GENRE Pop/RockREM DATE 2017REM DISCID CC12050DREM COMMENT "ExactAudioCopy v1.3"PERFORMER "Various Artists"TITLE "Cool Heat: The Best of CTI Records (Disc 1)"REM COMPOSER ""FILE "01. Eumir Deodato,Deodato - Also Sprach Zarathustra.wav" WAVE TRACK 01 AUDIO TITLE "Also Sprach Zarathustra" PERFORMER "Eumir Deodato/Deodato" REM COMPOSER "Richard Strauss" ISRC USSM10200672 INDEX 01 00:00:00 TRACK 02 AUDIO TITLE "Jaws" PERFORMER "Lalo Schifrin" REM COMPOSER "John Williams" ISRC USSM17600133 INDEX 00 09:01:71FILE "02. Lalo Schifrin - Jaws.wav" WAVE INDEX 01 00:00:00 TRACK 03 AUDIO TITLE "What a Difference a Day Makes" PERFORMER "Esther Phillips" REM COMPOSER "Stanley Adams/Marнa Grever" ISRC USSE90320630 INDEX 00 06:01:02FILE "03. Esther Phillips - What a Difference a Day Makes.wav" WAVE INDEX 01 00:00:00 TRACK 04 AUDIO TITLE "Could Heaven Ever Be Like This" PERFORMER "Idris Muhammad" REM COMPOSER "David Matthews/Tony Sarafino" ISRC USSM11405937 INDEX 00 04:29:17FILE "04. Idris Muhammad - Could Heaven Ever Be Like This.wav" WAVE INDEX 01 00:00:00 TRACK 05 AUDIO TITLE "Westchester Lady" PERFORMER "Bob James" REM COMPOSER "Bob James" ISRC USKO10501550 INDEX 00 08:36:15FILE "05. Bob James - Westchester Lady.wav" WAVE INDEX 01 00:00:00 TRACK 06 AUDIO TITLE "Shoogie Wanna Boogie" PERFORMER "Dave Matthews" REM COMPOSER "Patti Austin/Dave Matthews/G Guthrie" ISRC USSM17600269 INDEX 00 07:24:64FILE "06. Dave Matthews - Shoogie Wanna Boogie.wav" WAVE INDEX 01 00:00:00 TRACK 07 AUDIO TITLE "Grand Prix" PERFORMER "Fuse One" REM COMPOSER "Ronnie Foster" ISRC USSM10315904 INDEX 00 05:38:00FILE "07. Fuse One - Grand Prix.wav" WAVE INDEX 01 00:00:00 TRACK 08 AUDIO TITLE "The Chicago Theme (Love Loop)" PERFORMER "Hubert Laws" REM COMPOSER "Bob James" ISRC USSM10021791 INDEX 00 05:16:44FILE "08. Hubert Laws - The Chicago Theme (Love Loop).wav" WAVE INDEX 01 00:00:00 TRACK 09 AUDIO TITLE "Barreta’s Theme (Keep Your Eye on the Sparrow)" PERFORMER "Ron Carter" REM COMPOSER "Morgan Ames/Dave Grusin" ISRC USSM11703482 INDEX 00 05:35:00FILE "09. Ron Carter - Barreta’s Theme (Keep Your Eye on the Sparrow).wav" WAVE INDEX 01 00:00:00 TRACK 10 AUDIO TITLE "Breakout" PERFORMER "Johnny Hammond" REM COMPOSER "Johnny 'Hammond' Smith" ISRC USSM10113393 INDEX 00 03:23:55FILE "10. Johnny Hammond - Breakout.wav" WAVE INDEX 01 00:00:00 TRACK 11 AUDIO TITLE "Wildflower" PERFORMER "Hank Crawford" REM COMPOSER "Doug Edwards/David Richardson" ISRC USSM10113353 INDEX 00 04:44:13FILE "11. Hank Crawford - Wildflower.wav" WAVE INDEX 01 00:00:00 TRACK 12 AUDIO TITLE "Mama Wailer" PERFORMER "Lonnie Smith" REM COMPOSER "Lonnie Smith" ISRC USSM11103671 INDEX 00 03:53:28FILE "12. Lonnie Smith - Mama Wailer.wav" WAVE INDEX 01 00:00:00 TRACK 13 AUDIO TITLE "Say You Love Me" PERFORMER "Patti Austin" REM COMPOSER "Patti Austin" ISRC USSM10009736 INDEX 00 06:15:63FILE "13. Patti Austin - Say You Love Me.wav" WAVE INDEX 01 00:00:00

DR Log

foobar2000 1.1.10 / Dynamic Range Meter 1.1.1log date: 2019-01-16 17:18:03
--------------------------------------------------------------------------------Analyzed: Bob James / Cool Heat - The Best Of CTI Records (1) Dave Matthews / Cool Heat - The Best Of CTI Records (2) Esther Phillips / Cool Heat - The Best Of CTI Records (3) Eumir Deodato,Deodato / Cool Heat - The Best Of CTI Records (4) Fuse One / Cool Heat - The Best Of CTI Records (5) Hank Crawford / Cool Heat - The Best Of CTI Records (6) Hubert Laws / Cool Heat - The Best Of CTI Records (7) Idris Muhammad / Cool Heat - The Best Of CTI Records (8) Johnny Hammond / Cool Heat - The Best Of CTI Records (9) Lalo Schifrin / Cool Heat - The Best Of CTI Records (10) Lonnie Smith / Cool Heat - The Best Of CTI Records (11) Patti Austin / Cool Heat - The Best Of CTI Records (12) Ron Carter / Cool Heat - The Best Of CTI Records (13)--------------------------------------------------------------------------------
DR Peak RMS Duration Track--------------------------------------------------------------------------------DR12 0.00 dB -13.42 dB 7:27 ?-Westchester LadyDR13 0.00 dB -14.06 dB 5:40 ?-Shoogie Wanna BoogieDR9 0.00 dB -11.47 dB 4:31 ?-What a Difference a Day MakesDR10 0.00 dB -12.88 dB 9:04 ?-Also Sprach ZarathustraDR10 0.00 dB -12.26 dB 5:19 ?-Grand PrixDR9 -1.00 dB -11.75 dB 3:56 ?-WildflowerDR9 0.00 dB -11.30 dB 5:37 ?-The Chicago Theme (Love Loop)DR10 0.00 dB -11.11 dB 8:38 ?-Could Heaven Ever Be Like ThisDR9 0.00 dB -10.92 dB 4:46 ?-BreakoutDR11 0.00 dB -12.28 dB 6:03 ?-JawsDR9 0.00 dB -10.98 dB 6:18 ?-Mama WailerDR10 0.00 dB -11.36 dB 6:08 ?-Say You Love MeDR12 0.00 dB -13.81 dB 3:26 ?-Barreta’s Theme (Keep Your Eye on the Sparrow)--------------------------------------------------------------------------------
Number of tracks: 13Official DR value: DR10
Samplerate: 44100 HzChannels: 2Bits per sample: 16Bitrate: 1017 kbpsCodec: FLAC================================================================================

CD2

01. George "Bad" Benson - Supership
02. Nina Simone - Baltimore
03. Joe Farrell - Follow Your Heart
04. Kenny Burrell - Be Yourself
05. Eric Gale - Forecast
06. Freddie Hubbard - Polar AC
07. George Benson & Joe Farrell - Flute Song
08. Gabor Szabo - It's Going To Take Some Time
09. Stanley Turrentine - Sugar
10. Freddie Hubbard - Red Clay
11. Deodato - Super Strut
12. Esther Phillips - Home Is Where The Hatred Is

Лог создания рипа

Exact Audio Copy V1.3 from 2. September 2016
EAC extraction logfile from 2. April 2018, 18:31
Various Artists / Cool Heat - The Best Of CTI Records (CD 2)
Used drive : HL-DT-STDVDRAM GH24NSC0 Adapter: 1 ID: 0
Read mode : SecureUtilize accurate stream : YesDefeat audio cache : YesMake use of C2 pointers : No
Read offset correction : 6Overread into Lead-In and Lead-Out : NoFill up missing offset samples with silence : YesDelete leading and trailing silent blocks : NoNull samples used in CRC calculations : YesUsed interface : Native Win32 interface for Win NT & 2000Gap handling : Appended to previous track
Used output format : Internal WAV RoutinesSample format : 44.100 Hz; 16 Bit; Stereo
TOC of the extracted CD
Track | Start | Length | Start sector | End sector --------------------------------------------------------- 1 | 0:00.00 | 2:56.69 | 0 | 13268 2 | 2:56.69 | 4:37.12 | 13269 | 34055 3 | 7:34.06 | 6:53.27 | 34056 | 65057 4 | 14:27.33 | 5:56.05 | 65058 | 91762 5 | 20:23.38 | 7:44.13 | 91763 | 126575 6 | 28:07.51 | 6:52.61 | 126576 | 157536 7 | 35:00.37 | 6:03.62 | 157537 | 184823 8 | 41:04.24 | 4:10.72 | 184824 | 203645 9 | 45:15.21 | 10:02.14 | 203646 | 248809 10 | 55:17.35 | 12:10.13 | 248810 | 303572 11 | 67:27.48 | 8:53.62 | 303573 | 343609 12 | 76:21.35 | 3:24.17 | 343610 | 358926
Track 1
Filename H:\VA - Cool Heat - The Best Of CTI Records\cd 2\01. George ''Bad'' Benson - Supership.wav
Pre-gap length 0:00:02.00
Peak level 100.0 % Extraction speed 3.6 X Track quality 99.9 % Test CRC C43F00EE Copy CRC C43F00EE Accurately ripped (confidence 1) [D933E437] (AR v2) Copy OK
Track 2
Filename H:\VA - Cool Heat - The Best Of CTI Records\cd 2\02. Nina Simone - Baltimore.wav
Pre-gap length 0:00:01.76
Peak level 100.0 % Extraction speed 5.2 X Track quality 100.0 % Test CRC 6F5AA60E Copy CRC 6F5AA60E Accurately ripped (confidence 1) [FD6B02ED] (AR v2) Copy OK
Track 3
Filename H:\VA - Cool Heat - The Best Of CTI Records\cd 2\03. Joe Farrell - Follow Your Heart.wav
Pre-gap length 0:00:01.76
Peak level 100.0 % Extraction speed 5.9 X Track quality 100.0 % Test CRC F7A0B3DC Copy CRC F7A0B3DC Accurately ripped (confidence 1) [5B630FA8] (AR v2) Copy OK
Track 4
Filename H:\VA - Cool Heat - The Best Of CTI Records\cd 2\04. Kenny Burrell - Be Yourself.wav
Pre-gap length 0:00:01.76
Peak level 100.0 % Extraction speed 6.4 X Track quality 100.0 % Test CRC 07CC5436 Copy CRC 07CC5436 Accurately ripped (confidence 1) [C2D1E561] (AR v2) Copy OK
Track 5
Filename H:\VA - Cool Heat - The Best Of CTI Records\cd 2\05. Eric Gale - Forcast.wav
Pre-gap length 0:00:01.76
Peak level 100.0 % Extraction speed 7.0 X Track quality 100.0 % Test CRC 588D2A07 Copy CRC 588D2A07 Accurately ripped (confidence 1) [E8979313] (AR v2) Copy OK
Track 6
Filename H:\VA - Cool Heat - The Best Of CTI Records\cd 2\06. Freddie Hubbard - Polar AC.wav
Pre-gap length 0:00:01.76
Peak level 100.0 % Extraction speed 7.5 X Track quality 100.0 % Test CRC F95D33F9 Copy CRC F95D33F9 Accurately ripped (confidence 1) [E96AE08F] (AR v2) Copy OK
Track 7
Filename H:\VA - Cool Heat - The Best Of CTI Records\cd 2\07. George Benson And Joe Farrell - Flute Song.wav
Pre-gap length 0:00:01.76
Peak level 100.0 % Extraction speed 7.7 X Track quality 100.0 % Test CRC B4C93556 Copy CRC B4C93556 Accurately ripped (confidence 1) [7D602D8E] (AR v2) Copy OK
Track 8
Filename H:\VA - Cool Heat - The Best Of CTI Records\cd 2\08. Gabor Szabo - It's Going To Take Some Time.wav
Pre-gap length 0:00:01.76
Peak level 100.0 % Extraction speed 6.6 X Track quality 99.9 % Test CRC 3A09D56A Copy CRC 3A09D56A Accurately ripped (confidence 1) [B0C0AC71] (AR v2) Copy OK
Track 9
Filename H:\VA - Cool Heat - The Best Of CTI Records\cd 2\09. Stanley Turrentine - Sugar.wav
Pre-gap length 0:00:01.76
Peak level 99.9 % Extraction speed 8.8 X Track quality 100.0 % Test CRC 75A8B170 Copy CRC 75A8B170 Accurately ripped (confidence 1) [8CF9C81B] (AR v2) Copy OK
Track 10
Filename H:\VA - Cool Heat - The Best Of CTI Records\cd 2\10. Freddie Hubbard - Red Clay.wav
Pre-gap length 0:00:01.76
Peak level 100.0 % Extraction speed 9.5 X Track quality 100.0 % Test CRC 9CC84F93 Copy CRC 9CC84F93 Accurately ripped (confidence 1) [EC671A20] (AR v2) Copy OK
Track 11
Filename H:\VA - Cool Heat - The Best Of CTI Records\cd 2\11. Deodato - Super Strut.wav
Pre-gap length 0:00:01.76
Peak level 89.1 % Extraction speed 9.0 X Track quality 99.9 % Test CRC 19DBF7D3 Copy CRC 19DBF7D3 Accurately ripped (confidence 1) [D4EA5203] (AR v2) Copy OK
Track 12
Filename H:\VA - Cool Heat - The Best Of CTI Records\cd 2\12. Esther Phillips - Home Is Where The Hatred Is.wav
Pre-gap length 0:00:01.76
Peak level 100.0 % Extraction speed 9.0 X Track quality 100.0 % Test CRC 97D92743 Copy CRC 97D92743 Accurately ripped (confidence 1) [F607AF4A] (AR v2) Copy OK
All tracks accurately ripped
No errors occurred
End of status report
---- CUETools DB Plugin V2.1.6
[CTDB TOCID: ffrMbCJWUHTFI9uyqiuSJWp7yvs-] foundSubmit result: already submittedTrack | CTDB Status 1 | (4/4) Accurately ripped 2 | (4/4) Accurately ripped 3 | (4/4) Accurately ripped 4 | (4/4) Accurately ripped 5 | (4/4) Accurately ripped 6 | (4/4) Accurately ripped 7 | (4/4) Accurately ripped 8 | (4/4) Accurately ripped 9 | (4/4) Accurately ripped 10 | (4/4) Accurately ripped 11 | (4/4) Accurately ripped 12 | (4/4) Accurately ripped
==== Log checksum 5CD4846D88121453407F69E00DDDE69C5E7BB93BB84495938DDEFFD57CB43E60 ====
------------------------------------------------------------
Exact Audio Copy V1.3 from 2. September 2016
EAC extraction logfile from 2. April 2018, 18:32
Various Artists / Cool Heat - The Best Of CTI Records (CD 2)
Used drive : HL-DT-STDVDRAM GH24NSC0 Adapter: 1 ID: 0
Read mode : SecureUtilize accurate stream : YesDefeat audio cache : YesMake use of C2 pointers : No
Read offset correction : 6Overread into Lead-In and Lead-Out : NoFill up missing offset samples with silence : YesDelete leading and trailing silent blocks : NoNull samples used in CRC calculations : YesUsed interface : Native Win32 interface for Win NT & 2000Gap handling : Appended to previous track
Used output format : Internal WAV RoutinesSample format : 44.100 Hz; 16 Bit; Stereo
TOC of the extracted CD
Track | Start | Length | Start sector | End sector --------------------------------------------------------- 1 | 0:00.00 | 2:56.69 | 0 | 13268 2 | 2:56.69 | 4:37.12 | 13269 | 34055 3 | 7:34.06 | 6:53.27 | 34056 | 65057 4 | 14:27.33 | 5:56.05 | 65058 | 91762 5 | 20:23.38 | 7:44.13 | 91763 | 126575 6 | 28:07.51 | 6:52.61 | 126576 | 157536 7 | 35:00.37 | 6:03.62 | 157537 | 184823 8 | 41:04.24 | 4:10.72 | 184824 | 203645 9 | 45:15.21 | 10:02.14 | 203646 | 248809 10 | 55:17.35 | 12:10.13 | 248810 | 303572 11 | 67:27.48 | 8:53.62 | 303573 | 343609 12 | 76:21.35 | 3:24.17 | 343610 | 358926
Track 1
Filename H:\VA - Cool Heat - The Best Of CTI Records\cd 2\01. George ''Bad'' Benson - Supership.wav
Pre-gap length 0:00:02.00
Peak level 100.0 % Extraction speed 3.6 X Track quality 99.9 % Test CRC C43F00EE Copy CRC C43F00EE Accurately ripped (confidence 1) [D933E437] (AR v2) Copy OK
Track 2
Filename H:\VA - Cool Heat - The Best Of CTI Records\cd 2\02. Nina Simone - Baltimore.wav
Pre-gap length 0:00:01.76
Peak level 100.0 % Extraction speed 5.2 X Track quality 100.0 % Test CRC 6F5AA60E Copy CRC 6F5AA60E Accurately ripped (confidence 1) [FD6B02ED] (AR v2) Copy OK
Track 3
Filename H:\VA - Cool Heat - The Best Of CTI Records\cd 2\03. Joe Farrell - Follow Your Heart.wav
Pre-gap length 0:00:01.76
Peak level 100.0 % Extraction speed 5.9 X Track quality 100.0 % Test CRC F7A0B3DC Copy CRC F7A0B3DC Accurately ripped (confidence 1) [5B630FA8] (AR v2) Copy OK
Track 4
Filename H:\VA - Cool Heat - The Best Of CTI Records\cd 2\04. Kenny Burrell - Be Yourself.wav
Pre-gap length 0:00:01.76
Peak level 100.0 % Extraction speed 6.4 X Track quality 100.0 % Test CRC 07CC5436 Copy CRC 07CC5436 Accurately ripped (confidence 1) [C2D1E561] (AR v2) Copy OK
Track 5
Filename H:\VA - Cool Heat - The Best Of CTI Records\cd 2\05. Eric Gale - Forcast.wav
Pre-gap length 0:00:01.76
Peak level 100.0 % Extraction speed 7.0 X Track quality 100.0 % Test CRC 588D2A07 Copy CRC 588D2A07 Accurately ripped (confidence 1) [E8979313] (AR v2) Copy OK
Track 6
Filename H:\VA - Cool Heat - The Best Of CTI Records\cd 2\06. Freddie Hubbard - Polar AC.wav
Pre-gap length 0:00:01.76
Peak level 100.0 % Extraction speed 7.5 X Track quality 100.0 % Test CRC F95D33F9 Copy CRC F95D33F9 Accurately ripped (confidence 1) [E96AE08F] (AR v2) Copy OK
Track 7
Filename H:\VA - Cool Heat - The Best Of CTI Records\cd 2\07. George Benson And Joe Farrell - Flute Song.wav
Pre-gap length 0:00:01.76
Peak level 100.0 % Extraction speed 7.7 X Track quality 100.0 % Test CRC B4C93556 Copy CRC B4C93556 Accurately ripped (confidence 1) [7D602D8E] (AR v2) Copy OK
Track 8
Filename H:\VA - Cool Heat - The Best Of CTI Records\cd 2\08. Gabor Szabo - It's Going To Take Some Time.wav
Pre-gap length 0:00:01.76
Peak level 100.0 % Extraction speed 6.6 X Track quality 99.9 % Test CRC 3A09D56A Copy CRC 3A09D56A Accurately ripped (confidence 1) [B0C0AC71] (AR v2) Copy OK
Track 9
Filename H:\VA - Cool Heat - The Best Of CTI Records\cd 2\09. Stanley Turrentine - Sugar.wav
Pre-gap length 0:00:01.76
Peak level 99.9 % Extraction speed 8.8 X Track quality 100.0 % Test CRC 75A8B170 Copy CRC 75A8B170 Accurately ripped (confidence 1) [8CF9C81B] (AR v2) Copy OK
Track 10
Filename H:\VA - Cool Heat - The Best Of CTI Records\cd 2\10. Freddie Hubbard - Red Clay.wav
Pre-gap length 0:00:01.76
Peak level 100.0 % Extraction speed 9.5 X Track quality 100.0 % Test CRC 9CC84F93 Copy CRC 9CC84F93 Accurately ripped (confidence 1) [EC671A20] (AR v2) Copy OK
Track 11
Filename H:\VA - Cool Heat - The Best Of CTI Records\cd 2\11. Deodato - Super Strut.wav
Pre-gap length 0:00:01.76
Peak level 89.1 % Extraction speed 9.0 X Track quality 99.9 % Test CRC 19DBF7D3 Copy CRC 19DBF7D3 Accurately ripped (confidence 1) [D4EA5203] (AR v2) Copy OK
Track 12
Filename H:\VA - Cool Heat - The Best Of CTI Records\cd 2\12. Esther Phillips - Home Is Where The Hatred Is.wav
Pre-gap length 0:00:01.76
Peak level 100.0 % Extraction speed 9.0 X Track quality 100.0 % Test CRC 97D92743 Copy CRC 97D92743 Accurately ripped (confidence 1) [F607AF4A] (AR v2) Copy OK
All tracks accurately ripped
No errors occurred
End of status report
---- CUETools DB Plugin V2.1.6
[CTDB TOCID: ffrMbCJWUHTFI9uyqiuSJWp7yvs-] foundSubmit result: already submittedTrack | CTDB Status 1 | (4/4) Accurately ripped 2 | (4/4) Accurately ripped 3 | (4/4) Accurately ripped 4 | (4/4) Accurately ripped 5 | (4/4) Accurately ripped 6 | (4/4) Accurately ripped 7 | (4/4) Accurately ripped 8 | (4/4) Accurately ripped 9 | (4/4) Accurately ripped 10 | (4/4) Accurately ripped 11 | (4/4) Accurately ripped 12 | (4/4) Accurately ripped
==== Log checksum B010FD61E29F502D3BC32734166125EB8DAF793AF331D75B4111C736513E2395 ====

Содержание индексной карты (.CUE)

REM GENRE Jazz+FunkREM DATE 2017REM DISCID B712B10CREM COMMENT "ExactAudioCopy v1.3"PERFORMER "Various Artists"TITLE "Cool Heat - The Best Of CTI Records (CD 2)"REM COMPOSER ""FILE "01. George ''Bad'' Benson - Supership.wav" WAVE TRACK 01 AUDIO TITLE "Supership" PERFORMER "George 'Bad' Benson" REM COMPOSER "" ISRC USSM11002924 INDEX 01 00:00:00 TRACK 02 AUDIO TITLE "Baltimore" PERFORMER "Nina Simone" REM COMPOSER "" ISRC USSM10024517 INDEX 00 02:55:12FILE "02. Nina Simone - Baltimore.wav" WAVE INDEX 01 00:00:00 TRACK 03 AUDIO TITLE "Follow Your Heart" PERFORMER "Joe Farrell" REM COMPOSER "" ISRC USSM10701652 INDEX 00 04:35:30FILE "03. Joe Farrell - Follow Your Heart.wav" WAVE INDEX 01 00:00:00 TRACK 04 AUDIO TITLE "Be Yourself" PERFORMER "Kenny Burrell" REM COMPOSER "" ISRC USSM10113324 INDEX 00 06:51:45FILE "04. Kenny Burrell - Be Yourself.wav" WAVE INDEX 01 00:00:00 TRACK 05 AUDIO TITLE "Forcast" PERFORMER "Eric Gale" REM COMPOSER "" ISRC USSM11701030 INDEX 00 05:54:23FILE "05. Eric Gale - Forcast.wav" WAVE INDEX 01 00:00:00 TRACK 06 AUDIO TITLE "Polar AC" PERFORMER "Freddie Hubbard" REM COMPOSER "" ISRC USSM10901222 INDEX 00 07:42:31FILE "06. Freddie Hubbard - Polar AC.wav" WAVE INDEX 01 00:00:00 TRACK 07 AUDIO TITLE "Flute Song" PERFORMER "George Benson And Joe Farrell" REM COMPOSER "" ISRC USSM10407672 INDEX 00 06:51:04FILE "07. George Benson And Joe Farrell - Flute Song.wav" WAVE INDEX 01 00:00:00 TRACK 08 AUDIO TITLE "It's Going To Take Some Time" PERFORMER "Gabor Szabo" REM COMPOSER "" ISRC USSM11702717 INDEX 00 06:02:05FILE "08. Gabor Szabo - It's Going To Take Some Time.wav" WAVE INDEX 01 00:00:00 TRACK 09 AUDIO TITLE "Sugar" PERFORMER "Stanley Turrentine" REM COMPOSER "" ISRC USSM10112860 INDEX 00 04:09:15FILE "09. Stanley Turrentine - Sugar.wav" WAVE INDEX 01 00:00:00 TRACK 10 AUDIO TITLE "Red Clay" PERFORMER "Freddie Hubbard" REM COMPOSER "" ISRC USSM17000134 INDEX 00 10:00:32FILE "10. Freddie Hubbard - Red Clay.wav" WAVE INDEX 01 00:00:00 TRACK 11 AUDIO TITLE "Super Strut" PERFORMER "Deodato" REM COMPOSER "" ISRC USSM10113331 INDEX 00 12:08:31FILE "11. Deodato - Super Strut.wav" WAVE INDEX 01 00:00:00 TRACK 12 AUDIO TITLE "Home Is Where The Hatred Is" PERFORMER "Esther Phillips" REM COMPOSER "" ISRC USSM10114928 INDEX 00 08:52:05FILE "12. Esther Phillips - Home Is Where The Hatred Is.wav" WAVE INDEX 01 00:00:00

DR Log

foobar2000 1.1.10 / Dynamic Range Meter 1.1.1log date: 2019-01-16 17:25:25
--------------------------------------------------------------------------------Analyzed: Deodato / Cool Heat - The Best Of CTI Records (1) Eric Gale / Cool Heat - The Best Of CTI Records (2) Esther Phillips / Cool Heat - The Best Of CTI Records (3) Freddie Hubbard / Cool Heat - The Best Of CTI Records (4-5) Gabor Szabo / Cool Heat - The Best Of CTI Records (6) George ''Bad'' Benson / Cool Heat - The Best Of CTI Records (7) George Benson And Joe Farrell / Cool Heat - The Best Of CTI Records (8) Joe Farrell / Cool Heat - The Best Of CTI Records (9) Kenny Burrell / Cool Heat - The Best Of CTI Records (10) Nina Simone / Cool Heat - The Best Of CTI Records (11) Stanley Turrentine / Cool Heat - The Best Of CTI Records (12)--------------------------------------------------------------------------------
DR Peak RMS Duration Track--------------------------------------------------------------------------------DR7 -1.00 dB -10.90 dB 8:54 ?-Super StrutDR10 0.00 dB -12.46 dB 7:44 ?-ForcastDR10 0.00 dB -12.55 dB 3:24 ?-Home Is Where The Hatred IsDR8 0.00 dB -10.45 dB 6:53 ?-Polar ACDR11 0.00 dB -14.58 dB 12:10 ?-Red ClayDR11 0.00 dB -14.03 dB 4:11 ?-It's Going To Take Some TimeDR13 0.00 dB -14.24 dB 2:57 ?-SupershipDR12 0.00 dB -13.69 dB 6:04 ?-Flute SongDR9 0.00 dB -11.41 dB 6:53 ?-Follow Your HeartDR9 0.00 dB -12.74 dB 5:56 ?-Be YourselfDR12 0.00 dB -14.24 dB 4:37 ?-BaltimoreDR10 0.00 dB -13.11 dB 10:02 ?-Sugar--------------------------------------------------------------------------------
Number of tracks: 12Official DR value: DR10
Samplerate: 44100 HzChannels: 2Bits per sample: 16Bitrate: 913 kbpsCodec: FLAC================================================================================

Об альбоме (сборнике)

A great introduction to the legendary CTI Records label from the 70s – a groundbreaking imprint for both jazz and soul, and a company who helped a whole generation of musicians find a new way forward! The set's got a really great balance – with both some of the funky jazz and soulful vocal cuts recorded by the label and it's partner imprint, Kudu – and over the course of the 25 tracks on the extended collection, you'll not only hear a great evolution in grooves for the 70s generation – but also a fair bit of tracks that have gone onto new lives as sample cuts too! Titles include "Mama Wailer" by Lonnie Smith, "Say You Love Me" by Patti Austin, "2001 – Also Sprach Zarathustra" by Deodato, "Jaws" by Lalo Schifrin, "Could Heaven Ever Be Like This" by Idris Muhammad, "Supership" by George Benson, "Baltimore" by Nina Simone, "Polar AC" by Freddie Hubbard, "Home Is Where The Hatred Is" by Esther Phillips, "It's Going To Take Some Time" by Gabor Szabo, "Flute Song" by George Benson & Joe Farrell, "Forecast" by Eric Gale, "Baretta's Theme" by Ron Carter, "Breakout" by Johnny Hammond, "Wildflower" by Hank Crawford, "Knucklehead" by Grover Washington Jr, "Grand Prix" by Fuse One, "Shoogie Wanna Boogie" by Dave Matthews, "Be Yourself" by Kenny Burrell, "Sugar" by Stanley Turrentine, "Red Clay" by Freddie Hubbard, "Super Strut" by Deodato, and "Follow Your Heart" by Joe Farrell.
-Раздаю до первых 5-ти скачавших, на раздачи не возвращаюсь...-
[ru-zerkalo.org]_t_5675322
Torrent: Registered ·  [ 2019-01-20 20:15 ] ·  ce4195c6c4c3c9a006471e59ac27a1bb234572b6

23 KB

Status: checked
Completed: 3 times
Size: 995 MB
Rating: 
(Votes: 0)
Say thanks: 0  Thanks
 
Похожие темы
[Profile] [PM]
Display posts from previous:    
Reply to topic

The time now is: Today 21:35

All times are GMT + 7 Hours



You cannot post new topics in this forum
You cannot reply to topics in this forum
You cannot edit your posts in this forum
You cannot delete your posts in this forum
You cannot vote in polls in this forum
You cannot attach files in this forum
You can download files in this forum