Register · 
Username: Password:
 ·  Forgot password?

[DTSCD][UP] 2 Brothers On The 4th Floor - Dreams - 1995 (Eurodance)

Reply to topic
DL-List and Torrent activity [Update пиров]
Size:  663 MB   |    Registered:  1 year   |    Completed:  1 time

Seeder not seen: 5 months 16 days

 
   
 
 
 
Author Message

manic-manic ®

Gender:

Longevity: 6 years 3 months

Posts: 14192

Post 21-Jan-2019 22:53

[Quote]

2 Brothers On The 4th Floor - Dreams DTS UPMix
Формат записи/Источник записи: [DTSCD][UP]
Наличие водяных знаков: Нет
Год издания/переиздания диска: 1995
Жанр: Eurodance
Издатель(лейбл): CNR Music
Наличие сканов в содержимом раздачи: Да
Треклист:
01 Dreams (Will Come Alive)
02 Never Alone
03 I Can't Believe It
04 Let Me Be Free
05 Feel So Good
06 Do It
07 Dance With Me
08 Smile
09 Can't Help Myself
10 Turn Da Music Up
11 Dreams (Twenty 4 Seven Trance Mix)
12 Never Alone (Beats 'R' Us Mix)
13 Turn Da Music Up (Beats 'R' Us Mix)
Контейнер: WAV(*.wav)
Тип рипа: tracks
Разрядность: 16/44,1
Формат: DTS
Количество каналов: 5.1
Битрейт аудио: 1411 kbps

DR-лог

----------------------------------------------------------------------------------------------foobar2000 1.1.9 / Dynamic Range Meter 1.1.1log date: 2019-01-20 19:59:52
--------------------------------------------------------------------------------Analyzed: ? / ?--------------------------------------------------------------------------------
DR Peak RMS Duration Track--------------------------------------------------------------------------------DR11 -1.92 dB -16.66 dB 4:23 ?-01_2 Brothers On The 4th Floor - Dreams (Will Come Alive) DTSDR11 -1.78 dB -16.74 dB 5:51 ?-02_2 Brothers On The 4th Floor - Never Alone DTSDR11 -1.79 dB -16.65 dB 4:09 ?-03_2 Brothers On The 4th Floor - I Can't Believe It DTSDR10 -2.13 dB -16.69 dB 3:24 ?-04_2 Brothers On The 4th Floor - Let Me Be Free DTSDR11 -1.93 dB -16.67 dB 3:44 ?-05_2 Brothers On The 4th Floor - Feel So Good DTSDR11 -1.78 dB -16.69 dB 3:25 ?-06_2 Brothers On The 4th Floor - Do It DTSDR11 -1.38 dB -16.64 dB 4:09 ?-07_2 Brothers On The 4th Floor - Dance With Me DTSDR11 -2.20 dB -16.68 dB 3:34 ?-08_2 Brothers On The 4th Floor - Smile DTSDR11 -1.74 dB -16.67 dB 5:16 ?-09_2 Brothers On The 4th Floor - Can't Help Myself DTSDR10 -2.09 dB -16.68 dB 4:37 ?-10_2 Brothers On The 4th Floor - Turn Da Music Up DTSDR11 -2.09 dB -16.67 dB 5:49 ?-11_2 Brothers On The 4th Floor - Dreams (Twenty 4 Seven Trance Mix) DTSDR11 -1.49 dB -16.67 dB 5:22 ?-12_2 Brothers On The 4th Floor - Never Alone (Beats 'R' Us Mix) DTSDR11 -1.68 dB -16.65 dB 4:56 ?-13_2 Brothers On The 4th Floor - Turn Da Music Up (Beats 'R' Us Mix) DTS--------------------------------------------------------------------------------
Number of tracks: 13Official DR value: DR11
Samplerate: 44100 HzChannels: 6Bits per sample: 16Bitrate: 1411 kbpsCodec: DTS================================================================================
Источник (релизер):Оригинальный CD
Доп. информация: DJ S.A.W. DTS Upmix
Метод получения апмикса:
ручное выделение фазо-частотных фрагментов фонограммы с помощью функции CCE Adobe Audition
мультиканальный мастеринг – Аdobe Audition (встроенными эффектами и плагинами Waves, iZotope,
Starplugs и т.п.)
[ru-zerkalo.org]_t_5102671
Torrent: Registered ·  [ 2019-01-21 22:51 ] ·  4344aa149798d58a67c9bbacfa43653b70a1a769

15 KB

Status: checked
Completed: 1 times
Size: 663 MB
Rating: 
(Votes: 0)
Say thanks: 0  Thanks
 
Похожие темы
[Profile] [PM]
Display posts from previous:    
Reply to topic

The time now is: Today 19:20

All times are GMT + 7 Hours



You cannot post new topics in this forum
You cannot reply to topics in this forum
You cannot edit your posts in this forum
You cannot delete your posts in this forum
You cannot vote in polls in this forum
You cannot attach files in this forum
You can download files in this forum