Register · 
Username: Password:
 ·  Forgot password?

Наруто: Последний фильм / The Last: Naruto the Movie (Цунэо Кобаяси) [Movie] [RUS(int)] [без хардсаба] [2014, приключения, комедия, боевые искусства, сёнэн, WEBRip] [720p]

Reply to topic
DL-List and Torrent activity [Update пиров]
Size:  3.45 GB   |    Registered:  2 years 8 months   |    Completed:  0 times

Seeder not seen: Never

 
   
 
 
 
Author Message

manic-manic ®

Gender:

Longevity: 6 years 3 months

Posts: 14192

Post 15-May-2017 12:03

[Quote]

Наруто: Последний фильмThe Last: Naruto the Movie
-Год выпуска: 2014
Страна: Япония
Тип: Movie
Жанр: приключения, комедия, боевые искусства, сёнэн.
Продолжительность: 01:51:54
Субтитры: нет-Режиссёр: Цунэо Кобаяси-Перевод: полное дублирование от Reanimedia-Описание: Спустя годы после событий Четвертой Мировой Войны Луна, в которую давным-давно Рикудо Сэннин запечатал Гэдо Мазо, начинает приближаться к Земле, угрожая превратиться в метеор и уничтожить все живое. В это нелегкое время таинственный человек, обладающий бьякуганом, похищает сестру Хинаты, Ханаби. И теперь уже взрослые Наруто и его друзья отправляются, чтобы спасти Ханаби и принять участие в финальной битве, которая решит судьбу всего мира!
Качество: WEBRip 720p [iTunes] [Сэмпл]
Формат: MKV
Тип видео: без хардсаба
Видео: MPEG4 Video (H264), 1280x692, 24fps, 8bit, 3 944 Kbps
Аудио: Dolby AC3, 48000Hz, 6ch, 384 Kbps

Скриншоты


MediaInfo

Format : MatroskaFormat version : Version 4 / Version 2File size : 3.45 GiBDuration : 1h 51mnOverall bit rate : 4 416 KbpsEncoded date : UTC 2015-07-01 18:09:12Writing application : mkvmerge v6.9.1 ('Blue Panther') 64bit built on Apr 18 2014 18:23:38Writing library : libebml v1.3.0 + libmatroska v1.4.1
VideoID : 1Format : AVCFormat/Info : Advanced Video CodecFormat profile : High@L3.1Format settings, CABAC : NoFormat settings, ReFrames : 2 framesCodec ID : V_MPEG4/ISO/AVCDuration : 1h 51mnBit rate : 3 944 KbpsWidth : 1 280 pixelsHeight : 692 pixelsDisplay aspect ratio : 1.85:1Frame rate mode : ConstantFrame rate : 24.000 fpsColor space : YUVChroma subsampling : 4:2:0Bit depth : 8 bitsScan type : ProgressiveBits/(Pixel*Frame) : 0.186Stream size : 3.08 GiB (89%)Language : EnglishDefault : YesForced : NoColor primaries : BT.709Transfer characteristics : BT.709Matrix coefficients : BT.709
AudioID : 2Format : AC-3Format/Info : Audio Coding 3Mode extension : CM (complete main)Format settings, Endianness : BigCodec ID : A_AC3Duration : 1h 51mnBit rate mode : ConstantBit rate : 384 KbpsChannel(s) : 6 channelsChannel positions : Front: L C R, Side: L R, LFESampling rate : 48.0 KHzBit depth : 16 bitsCompression mode : LossyStream size : 307 MiB (9%)Language : RussianDefault : YesForced : No

Отличие от существующих раздач

Там 384p - http:///forum/viewtopic.php?t=5035197 - тут 720p
Там 1080p - http:///forum/viewtopic.php?t=5035433 - тут 720p
[ru-zerkalo.org]_t_5035434
Torrent: Registered ·  [ 2017-05-15 11:14 ] ·  3a1d31faee2474c85beb1cf283e46834e0e24fbe

18 KB

Status: checked
Completed: 0 times
Size: 3.45 GB
Rating: 
(Votes: 0)
Say thanks: 0  Thanks
 
Похожие темы
[Profile] [PM]
Display posts from previous:    
Reply to topic

The time now is: Today 07:16

All times are GMT + 7 Hours



You cannot post new topics in this forum
You cannot reply to topics in this forum
You cannot edit your posts in this forum
You cannot delete your posts in this forum
You cannot vote in polls in this forum
You cannot attach files in this forum
You can download files in this forum