Register · 
Username: Password:
 ·  Forgot password?

[GEO] (Pop-Rock / Pop) [CD] Mgzavrebi - Geo - 2018, FLAC (image+.cue), lossless

Reply to topic
DL-List and Torrent activity [Update пиров]
Size:  372 MB   |    Registered:  11 months 2 days   |    Completed:  1 time

Seeder not seen: 7 months 19 days

 
   
 
 
 
Author Message

god56 ®

Gender:

Longevity: 6 years 3 months

Posts: 26126

Post 21-Feb-2019 21:31

[Quote]

Mgzavrebi / Geo
Жанр: Pop-Rock / Pop
Носитель: CD
Страна-производитель диска (релиза): Россия
Год издания: 2018
Издатель (лейбл): Мистерия Звука / Mgzavrebi
Номер по каталогу: 4620032911318
Страна исполнителя (группы): Грузия
Аудиокодек: FLAC (*.flac)
Тип рипа: image+.cue
Битрейт аудио: lossless
Продолжительность: 00:40:51
Источник (релизер): рип собственного диска
Наличие сканов в содержимом раздачи: да
Треклист:
01. კაპელა 53 | Сapella 53 (3:12)
02. ველვეტი | Velvet (5:00)
03. არსად | Arsad (3:45)
04. ერო | Ero (4:05)
05. რემბო | Rambo (3:48)
06. დამინა | Damina (4:07)
07. ანანკე | Ananke (4:34)
08. ვატმან | Vatman (4:09)
09. Высоко (4:03)
10. გეო | Geo (4:02)

Лог создания рипа

Exact Audio Copy V1.0 beta 3 from 29. August 2011
EAC extraction logfile from 5. December 2018, 23:13
Mgzavrebi / Geo
Used drive : ASUS BW-16D1HT Adapter: 2 ID: 0
Read mode : SecureUtilize accurate stream : YesDefeat audio cache : YesMake use of C2 pointers : No
Read offset correction : 6Overread into Lead-In and Lead-Out : NoFill up missing offset samples with silence : YesDelete leading and trailing silent blocks : NoNull samples used in CRC calculations : YesUsed interface : Native Win32 interface for Win NT & 2000
Used output format : User Defined EncoderSelected bitrate : 128 kBit/sQuality : HighAdd ID3 tag : NoCommand line compressor : C:\Program Files (x86)\Exact Audio Copy\Flac\flac.exeAdditional command line options : -V -8 -T "Genre=%genre%" -T "Artist=%artist%" -T "Title=%title%" -T "Album=%albumtitle%" -T "Date=%year%" -T "Tracknumber=%tracknr%" -T "Comment=%comment%" %source%
TOC of the extracted CD
Track | Start | Length | Start sector | End sector --------------------------------------------------------- 1 | 0:00.00 | 3:12.05 | 0 | 14404 2 | 3:12.05 | 5:00.60 | 14405 | 36964 3 | 8:12.65 | 3:45.41 | 36965 | 53880 4 | 11:58.31 | 4:05.69 | 53881 | 72324 5 | 16:04.25 | 3:48.60 | 72325 | 89484 6 | 19:53.10 | 4:07.61 | 89485 | 108070 7 | 24:00.71 | 4:34.72 | 108071 | 128692 8 | 28:35.68 | 4:09.19 | 128693 | 147386 9 | 32:45.12 | 4:03.24 | 147387 | 165635 10 | 36:48.36 | 4:02.67 | 165636 | 183852
Range status and errors
Selected range
Filename D:\Mgzavrebi (Мгзавреби) - Geo (4620032911318) (2018)\Mgzavrebi (Мгзавреби) - Geo (4620032911318) (2018).wav
Peak level 99.4 % Extraction speed 7.4 X Range quality 100.0 % Test CRC CF0AA5A0 Copy CRC CF0AA5A0 Copy OK
No errors occurred
AccurateRip summary
Track 1 not present in databaseTrack 2 not present in databaseTrack 3 not present in databaseTrack 4 not present in databaseTrack 5 not present in databaseTrack 6 not present in databaseTrack 7 not present in databaseTrack 8 not present in databaseTrack 9 not present in databaseTrack 10 not present in database
None of the tracks are present in the AccurateRip database
End of status report
==== Log checksum E987A04AC240CFBE1AFCAA382AE829F2F034EDC28B1ABE3221F40C0F9B6B32DB ====

Содержание индексной карты (.CUE)

REM GENRE PopREM DATE 2018REM DISCID 8609930AREM COMMENT "ExactAudioCopy v1.0b3"PERFORMER "Mgzavrebi"TITLE "Geo"FILE "Mgzavrebi (Мгзавреби) - Geo (4620032911318) (2018).flac" WAVE TRACK 01 AUDIO TITLE "Сapella 53" PERFORMER "Mgzavrebi" INDEX 01 00:00:00 TRACK 02 AUDIO TITLE "Velvet" PERFORMER "Mgzavrebi" INDEX 01 03:12:05 TRACK 03 AUDIO TITLE "Arsad" PERFORMER "Mgzavrebi" INDEX 01 08:12:65 TRACK 04 AUDIO TITLE "Ero" PERFORMER "Mgzavrebi" INDEX 01 11:58:31 TRACK 05 AUDIO TITLE "Rambo" PERFORMER "Mgzavrebi" INDEX 01 16:04:25 TRACK 06 AUDIO TITLE "Damina" PERFORMER "Mgzavrebi" INDEX 01 19:53:10 TRACK 07 AUDIO TITLE "Ananke" PERFORMER "Mgzavrebi" INDEX 01 24:00:71 TRACK 08 AUDIO TITLE "Vatman" PERFORMER "Mgzavrebi" INDEX 01 28:35:68 TRACK 09 AUDIO TITLE "Высоко" PERFORMER "Mgzavrebi" INDEX 01 32:45:12 TRACK 10 AUDIO TITLE "Geo" PERFORMER "Mgzavrebi" INDEX 01 36:48:36

Об исполнителе (группе)

Группа Мгзавреби («Mgzavrebi» - переводится на русский язык как «Путники») родом из Тбилиси, и на сегодняшний день это один из самых популярных музыкальных коллективов в Грузии. Группа была основана в 2006 году, выпустила три полноценных альбома, став широко известной не только на Родине, но и за ее пределами. За это время коллектив, возглавляемый композитором и вокалистом Гиги Дедаламазишвили, сотрудничал с всемирно известными музыкантами: Пласидо Доминго, Андреа Бочелли, Нино Катамадзе, а также знаменитым музыкальным проектом «Buena Vista Social Club»
Мгзавреби только начинают свое восхождение в Москве, в то время как в родной Грузии они собирают стадионы и выступают на главных площадях страны. Знакомство группы с Россией началось в прошлом году, когда известный писатель Евгений Гришковец пригласил их для записи альбома «Ждать Жить Ждать», выпущенного лейблом «Снегири», впервые после расставания с коллективом Бигуди.
Евгений Гришковец: «Таксисты, услышав «Мгзавреби» по радио, делают погромче, – рассказывает о группе Евгений Гришковец, – А вообще «Мгзавреби» в Грузии любят так, как когда-то, почти двадцать лет назад, у нас любили Илью Лагутенко и группу «Мумий Тролль». Гиги Дедаламазишвили и остальные Мгзавреби такого же возраста, как и Илья с «Троллями», когда начинали. Мгзавреби на сегодняшний день редчайший случай группы людей, знакомых со школы. Это не какой-то продюсерский или искусственный «проект», а настоящая Группа в том самом понимании творческого коллектива, какое было когда-то. На сегодняшний день – это просто чудо».

Об альбоме (сборнике)

Шестой альбом группы.

Состав

Гиги Дедаламазишвили - вокал, гитара
Лаша Дохнадзе - вокал, перкуссия
Миша Мегрелишвили - речитатив, перкуссия
Дато Гогелия - бас-гитара, вокал
Бежо Амиранашвили - гитара, пандури, вокал
Гуга Кублашвили - флейта, пандури, вокал
Дато Угрехелидзе - клавиши
[ru-zerkalo.org]_t_5645862
Torrent: Registered ·  [ 2019-02-21 21:22 ] ·  71726fa984522ec5e30ddff874f070803da466ee

5 KB

Status: checked
Completed: 1 times
Size: 372 MB
Rating: 
(Votes: 0)
Say thanks: 0  Thanks
 
Похожие темы
[Profile] [PM]
Display posts from previous:    
Reply to topic

The time now is: Today 07:15

All times are GMT + 7 Hours



You cannot post new topics in this forum
You cannot reply to topics in this forum
You cannot edit your posts in this forum
You cannot delete your posts in this forum
You cannot vote in polls in this forum
You cannot attach files in this forum
You can download files in this forum