Register · 
Username: Password:
 ·  Forgot password?

(Dixieland, Big Band, Swing, Vocal Jazz, Mainstream Jazz) [10xCD] VA - Les Tresors Du Jazz 1898-1943 (King Oliver, Louis Armstrong, Duke Ellington, Lionel Hampton, etc.) - 2002, FLAC (tracks+.cue), lossless

Reply to topic
DL-List and Torrent activity [Update пиров]
Size:  3.06 GB   |    Registered:  9 months 8 days   |    Completed:  0 times

Seeder not seen: Never

 
   
 
 
 
Author Message

ANTON1404 ®

Gender:

Longevity: 6 years 2 months

Posts: 18271

Post 04-Mar-2019 15:53

[Quote]

Les Trésors Du Jazz 1898-1943 Жанр: Dixieland, Big Band, Swing, Vocal Jazz, Mainstream Jazz
Год выпуска диска: 2002
Страна: France
Аудио кодек: FLAC
Тип рипа: tracks+.cue
Битрейт аудио: lossless
Продолжительность: 12:24:29
Источник: what.cd
Rateyourmusic

CD 01 - 1898-1925


Продолжительность: 1:15:10
Трэклист:
01 - Big Bill Broonzy - Joe Turner Blues (3:54)
02 - Jozeph Cullen & William Collins - Eli Green's Cake-Walk (2:12)
03 - Dinwiddie Colored Quartet - Gabriel's Trumpet (2:37)
04 - Victor Dance Orchestra - Cake-Walk In The Sky (3:40)
05 - Vess L. Ossman - Sant-Louis Tickle (3:00)
06 - Vess L. Ossman - A Bunch Of Rags (2:20)
07 - Europe's Society Orchestra - Castle House Rag (3:17)
08 - Fred Van Eps - Notoriety Rag (2:55)
09 - Scott Joplin - The Cascades (2:10)
10 - Eubie Blake - Charleston Rag (3:07)
11 - Original Dixieland Jass Band - Dixie Jass Band One Step (2:34)
12 - Original Dixieland Jass Band - Tiger Rag (3:09)
13 - James P. Johnson - Carolina Shout (2:48)
14 - King Oliver - Just Gone (2:44)
15 - King Oliver - Dipper Mouth Blues (2:16)
16 - King Oliver - Canal Street Blues (2:29)
17 - Jelly Roll Morton - New Orleans Joys (2:46)
18 - James P. Johnson - Toddlin' (2:46)
19 - Fats Waller - Mama's Got The Blues (2:54)
20 - Rosetta Crawford - Lonesome Woman Blues (3:07)
21 - Bessie Smith - Any Woman's Blues (3:25)
22 - Piron's New Orleans Orchestra - Mama's Gone Goodbye (3:04)
23 - Fletcher Henderson - Copenhagen (2:58)
24 - Bessie Smith & Louis Armstrong - Saint-Louis Blues (3:11)
25 - Bessie Smith - Sobbin' Hearted Blues (3:00)
26 - Fletcher Henderson - Sugar Foot Stomp (2:47)

log

Exact Audio Copy V1.0 beta 3 from 29. August 2011
EAC extraction logfile from 28. March 2012, 10:22
VA / Les Tresors Du Jazz 1898-1943 - Cd01 - 1898-1925
Used drive : LITE-ON CD-RW SOHR-5238S Adapter: 1 ID: 0
Read mode : SecureUtilize accurate stream : YesDefeat audio cache : YesMake use of C2 pointers : No
Read offset correction : 6Overread into Lead-In and Lead-Out : NoFill up missing offset samples with silence : YesDelete leading and trailing silent blocks : NoNull samples used in CRC calculations : YesUsed interface : Native Win32 interface for Win NT & 2000Gap handling : Appended to previous track
Used output format : User Defined EncoderSelected bitrate : 1024 kBit/sQuality : HighAdd ID3 tag : NoCommand line compressor : C:\Program Files\Exact Audio Copy\Flac\flac.exeAdditional command line options : -8 -V -T "ARTIST=%artist%" -T "TITLE=%title%" -T "ALBUM=%albumtitle%" -T "DATE=%year%" -T "TRACKNUMBER=%tracknr%" -T "GENRE=%genre%" -T "PERFORMER=%albuminterpret%" -T "COMPOSER=%composer%" %haslyrics%--tag-from-file=LYRICS="%lyricsfile%"%haslyrics% -T "ALBUMARTIST=%albumartist%" -T "ALBUM ARTIST=%albumartist%" -T "DISCNUMBER=%cdnumber%" -T "TOTALDISCS=%totalcds%" -T "TOTALTRACKS=%numtracks%" -T "COMMENT=EAC V1.0 beta 2, Secure Mode, Test & Copy, AccurateRip, FLAC -8" %source% -o %dest%
TOC of the extracted CD
Track | Start | Length | Start sector | End sector --------------------------------------------------------- 1 | 0:00.00 | 3:53.49 | 0 | 17523 2 | 3:53.49 | 2:12.17 | 17524 | 27440 3 | 6:05.66 | 2:37.25 | 27441 | 39240 4 | 8:43.16 | 3:40.23 | 39241 | 55763 5 | 12:23.39 | 3:00.04 | 55764 | 69267 6 | 15:23.43 | 2:19.65 | 69268 | 79757 7 | 17:43.33 | 3:16.58 | 79758 | 94515 8 | 21:00.16 | 2:55.05 | 94516 | 107645 9 | 23:55.21 | 2:09.56 | 107646 | 117376 10 | 26:05.02 | 3:06.72 | 117377 | 131398 11 | 29:11.74 | 2:33.38 | 131399 | 142911 12 | 31:45.37 | 3:09.07 | 142912 | 157093 13 | 34:54.44 | 2:48.25 | 157094 | 169718 14 | 37:42.69 | 2:44.02 | 169719 | 182020 15 | 40:26.71 | 2:16.13 | 182021 | 192233 16 | 42:43.09 | 2:28.58 | 192234 | 203391 17 | 45:11.67 | 2:46.30 | 203392 | 215871 18 | 47:58.22 | 2:45.39 | 215872 | 228285 19 | 50:43.61 | 2:54.26 | 228286 | 241361 20 | 53:38.12 | 3:06.46 | 241362 | 255357 21 | 56:44.58 | 3:25.34 | 255358 | 270766 22 | 60:10.17 | 3:03.39 | 270767 | 284530 23 | 63:13.56 | 2:57.52 | 284531 | 297857 24 | 66:11.33 | 3:11.08 | 297858 | 312190 25 | 69:22.41 | 3:00.10 | 312191 | 325700 26 | 72:22.51 | 2:46.70 | 325701 | 338220
Track 1
Filename D:\Downloads\VA - Les Tresors Du Jazz 1898-1925 2002 Flac\Cd01 - 1898-1925\01 Big Bill Broonzy - Joe Turner Blues.wav
Pre-gap length 0:00:02.00
Peak level 100.0 % Extraction speed 2.0 X Track quality 100.0 % Test CRC 028307FD Copy CRC 028307FD Accurately ripped (confidence 5) [AA43CA48] (AR v1) Copy OK
Track 2
Filename D:\Downloads\VA - Les Tresors Du Jazz 1898-1925 2002 Flac\Cd01 - 1898-1925\02 Jozeph Cullen & William Collins - Eli Green's Cake-Walk.wav
Pre-gap length 0:00:03.60
Peak level 69.8 % Extraction speed 1.9 X Track quality 100.0 % Test CRC F73A01B3 Copy CRC F73A01B3 Accurately ripped (confidence 5) [55C2355D] (AR v1) Copy OK
Track 3
Filename D:\Downloads\VA - Les Tresors Du Jazz 1898-1925 2002 Flac\Cd01 - 1898-1925\03 Dinwiddie Colored Quartet - Gabriel's Trumpet.wav
Pre-gap length 0:00:03.60
Peak level 73.6 % Extraction speed 1.7 X Track quality 99.9 % Test CRC FB44E1BA Copy CRC FB44E1BA Accurately ripped (confidence 5) [9D65C708] (AR v1) Copy OK
Track 4
Filename D:\Downloads\VA - Les Tresors Du Jazz 1898-1925 2002 Flac\Cd01 - 1898-1925\04 Victor Dance Orchestra - Cake-Walk In The Sky.wav
Pre-gap length 0:00:03.60
Peak level 87.5 % Extraction speed 2.1 X Track quality 100.0 % Test CRC AE3E7D2F Copy CRC AE3E7D2F Accurately ripped (confidence 5) [B6D2BAC3] (AR v1) Copy OK
Track 5
Filename D:\Downloads\VA - Les Tresors Du Jazz 1898-1925 2002 Flac\Cd01 - 1898-1925\05 Vess L. Ossman - Sant-Louis Tickle.wav
Pre-gap length 0:00:03.60
Peak level 81.2 % Extraction speed 2.0 X Track quality 100.0 % Test CRC 86823E0A Copy CRC 86823E0A Accurately ripped (confidence 5) [6157C1C3] (AR v1) Copy OK
Track 6
Filename D:\Downloads\VA - Les Tresors Du Jazz 1898-1925 2002 Flac\Cd01 - 1898-1925\06 Vess L. Ossman - A Bunch Of Rags.wav
Pre-gap length 0:00:03.60
Peak level 59.5 % Extraction speed 1.9 X Track quality 100.0 % Test CRC 929169DD Copy CRC 929169DD Accurately ripped (confidence 5) [4D3B4335] (AR v1) Copy OK
Track 7
Filename D:\Downloads\VA - Les Tresors Du Jazz 1898-1925 2002 Flac\Cd01 - 1898-1925\07 Europe's Society Orchestra - Castle House Rag.wav
Pre-gap length 0:00:03.60
Peak level 97.3 % Extraction speed 2.1 X Track quality 100.0 % Test CRC 6E2DDC04 Copy CRC 6E2DDC04 Accurately ripped (confidence 5) [983D2A1F] (AR v1) Copy OK
Track 8
Filename D:\Downloads\VA - Les Tresors Du Jazz 1898-1925 2002 Flac\Cd01 - 1898-1925\08 Fred Van Eps - Notoriety Rag.wav
Pre-gap length 0:00:03.60
Peak level 67.7 % Extraction speed 2.1 X Track quality 100.0 % Test CRC 2D9EF321 Copy CRC 2D9EF321 Accurately ripped (confidence 5) [33BCFECC] (AR v1) Copy OK
Track 9
Filename D:\Downloads\VA - Les Tresors Du Jazz 1898-1925 2002 Flac\Cd01 - 1898-1925\09 Scott Joplin - The Cascades.wav
Pre-gap length 0:00:03.60
Peak level 82.9 % Extraction speed 2.0 X Track quality 100.0 % Test CRC 0A63E28B Copy CRC 0A63E28B Accurately ripped (confidence 5) [A36B3DB8] (AR v1) Copy OK
Track 10
Filename D:\Downloads\VA - Les Tresors Du Jazz 1898-1925 2002 Flac\Cd01 - 1898-1925\10 Eubie Blake - Charleston Rag.wav
Pre-gap length 0:00:03.60
Peak level 100.0 % Extraction speed 2.0 X Track quality 100.0 % Test CRC 15FFFF99 Copy CRC 15FFFF99 Accurately ripped (confidence 5) [1C510227] (AR v1) Copy OK
Track 11
Filename D:\Downloads\VA - Les Tresors Du Jazz 1898-1925 2002 Flac\Cd01 - 1898-1925\11 Original Dixieland Jass Band - Dixie Jass Band One Step.wav
Pre-gap length 0:00:03.60
Peak level 94.3 % Extraction speed 2.0 X Track quality 100.0 % Test CRC 13578EED Copy CRC 13578EED Accurately ripped (confidence 5) [5C12B8B7] (AR v1) Copy OK
Track 12
Filename D:\Downloads\VA - Les Tresors Du Jazz 1898-1925 2002 Flac\Cd01 - 1898-1925\12 Original Dixieland Jass Band - Tiger Rag.wav
Pre-gap length 0:00:03.60
Peak level 95.3 % Extraction speed 2.1 X Track quality 100.0 % Test CRC 165927C3 Copy CRC 165927C3 Accurately ripped (confidence 5) [4133DB7A] (AR v1) Copy OK
Track 13
Filename D:\Downloads\VA - Les Tresors Du Jazz 1898-1925 2002 Flac\Cd01 - 1898-1925\13 James P. Johnson - Carolina Shout.wav
Pre-gap length 0:00:03.60
Peak level 79.2 % Extraction speed 1.7 X Track quality 99.9 % Test CRC AF09A63E Copy CRC AF09A63E Accurately ripped (confidence 5) [60975707] (AR v1) Copy OK
Track 14
Filename D:\Downloads\VA - Les Tresors Du Jazz 1898-1925 2002 Flac\Cd01 - 1898-1925\14 King Oliver - Just Gone.wav
Pre-gap length 0:00:03.60
Peak level 92.7 % Extraction speed 1.7 X Track quality 99.9 % Test CRC 2148F81C Copy CRC 2148F81C Accurately ripped (confidence 5) [A71CAA3B] (AR v1) Copy OK
Track 15
Filename D:\Downloads\VA - Les Tresors Du Jazz 1898-1925 2002 Flac\Cd01 - 1898-1925\15 King Oliver - Dipper Mouth Blues.wav
Pre-gap length 0:00:03.60
Peak level 93.4 % Extraction speed 2.0 X Track quality 100.0 % Test CRC AF53E80D Copy CRC AF53E80D Accurately ripped (confidence 5) [F6E82879] (AR v1) Copy OK
Track 16
Filename D:\Downloads\VA - Les Tresors Du Jazz 1898-1925 2002 Flac\Cd01 - 1898-1925\16 King Oliver - Canal Street Blues.wav
Pre-gap length 0:00:03.60
Peak level 91.9 % Extraction speed 2.0 X Track quality 100.0 % Test CRC 028E9817 Copy CRC 028E9817 Accurately ripped (confidence 5) [8C051B75] (AR v1) Copy OK
Track 17
Filename D:\Downloads\VA - Les Tresors Du Jazz 1898-1925 2002 Flac\Cd01 - 1898-1925\17 Jelly Roll Morton - New Orleans Joys.wav
Pre-gap length 0:00:03.60
Peak level 90.4 % Extraction speed 2.0 X Track quality 100.0 % Test CRC D10201EE Copy CRC D10201EE Accurately ripped (confidence 5) [E36FE652] (AR v1) Copy OK
Track 18
Filename D:\Downloads\VA - Les Tresors Du Jazz 1898-1925 2002 Flac\Cd01 - 1898-1925\18 James P. Johnson - Toddlin'.wav
Pre-gap length 0:00:03.60
Peak level 93.3 % Extraction speed 2.0 X Track quality 100.0 % Test CRC 620695E4 Copy CRC 620695E4 Accurately ripped (confidence 5) [E5502D7C] (AR v1) Copy OK
Track 19
Filename D:\Downloads\VA - Les Tresors Du Jazz 1898-1925 2002 Flac\Cd01 - 1898-1925\19 Fats Waller - Mama's Got The Blues.wav
Pre-gap length 0:00:03.60
Peak level 77.8 % Extraction speed 2.0 X Track quality 100.0 % Test CRC FF984E94 Copy CRC FF984E94 Accurately ripped (confidence 5) [7A42EE5E] (AR v1) Copy OK
Track 20
Filename D:\Downloads\VA - Les Tresors Du Jazz 1898-1925 2002 Flac\Cd01 - 1898-1925\20 Rosetta Crawford - Lonesome Woman Blues.wav
Pre-gap length 0:00:03.60
Peak level 95.6 % Extraction speed 2.1 X Track quality 100.0 % Test CRC E2FE316E Copy CRC E2FE316E Accurately ripped (confidence 5) [5C3633F1] (AR v1) Copy OK
Track 21
Filename D:\Downloads\VA - Les Tresors Du Jazz 1898-1925 2002 Flac\Cd01 - 1898-1925\21 Bessie Smith - Any Woman's Blues.wav
Pre-gap length 0:00:03.60
Peak level 80.2 % Extraction speed 2.1 X Track quality 100.0 % Test CRC D8F2675C Copy CRC D8F2675C Accurately ripped (confidence 5) [DFE96BE8] (AR v1) Copy OK
Track 22
Filename D:\Downloads\VA - Les Tresors Du Jazz 1898-1925 2002 Flac\Cd01 - 1898-1925\22 Piron's New Orleans Orchestra - Mama's Gone Goodbye.wav
Pre-gap length 0:00:03.60
Peak level 98.9 % Extraction speed 2.1 X Track quality 100.0 % Test CRC 474BF1A9 Copy CRC 474BF1A9 Accurately ripped (confidence 5) [753F233E] (AR v1) Copy OK
Track 23
Filename D:\Downloads\VA - Les Tresors Du Jazz 1898-1925 2002 Flac\Cd01 - 1898-1925\23 Fletcher Henderson - Copenhagen.wav
Pre-gap length 0:00:03.60
Peak level 90.9 % Extraction speed 2.1 X Track quality 100.0 % Test CRC D1FA2897 Copy CRC D1FA2897 Accurately ripped (confidence 5) [B2485BA7] (AR v1) Copy OK
Track 24
Filename D:\Downloads\VA - Les Tresors Du Jazz 1898-1925 2002 Flac\Cd01 - 1898-1925\24 Bessie Smith & Louis Armstrong - Saint-Louis Blues.wav
Pre-gap length 0:00:03.60
Peak level 100.0 % Extraction speed 2.1 X Track quality 100.0 % Test CRC D529C7F0 Copy CRC D529C7F0 Accurately ripped (confidence 5) [ADEED3C4] (AR v1) Copy OK
Track 25
Filename D:\Downloads\VA - Les Tresors Du Jazz 1898-1925 2002 Flac\Cd01 - 1898-1925\25 Bessie Smith - Sobbin' Hearted Blues.wav
Pre-gap length 0:00:03.60
Peak level 90.8 % Extraction speed 2.0 X Track quality 100.0 % Test CRC 4E73FB0A Copy CRC 4E73FB0A Accurately ripped (confidence 5) [90138B2B] (AR v1) Copy OK
Track 26
Filename D:\Downloads\VA - Les Tresors Du Jazz 1898-1925 2002 Flac\Cd01 - 1898-1925\26 Fletcher Henderson - Sugar Foot Stomp.wav
Pre-gap length 0:00:03.60
Peak level 84.2 % Extraction speed 0.3 X Track quality 99.3 % Test CRC 1681BD85 Copy CRC 1681BD85 Accurately ripped (confidence 5) [6CD66F61] (AR v1) Copy OK
All tracks accurately ripped
No errors occurred
End of status report
---- CUETools DB Plugin V2.1.3
[CTDB TOCID: KB7IdZ_NdTBzA_5AlS_N.XjrJ.A-] found, Submit result: KB7IdZ_NdTBzA_5AlS_N.XjrJ.A- has been confirmed[0b89feb2] (1/1) Accurately ripped
==== Log checksum 2060C4C2CE80E4C0755471B4DFDF97A30CC376542BDC739EC75E0DAAFA09EB74 ====

.cue

REM GENRE JazzREM DATE 2002REM DISCID 7B119D1AREM COMMENT "ExactAudioCopy v1.0b3"FILE "01 - Big Bill Broonzy - Joe Turner Blues.wav" WAVE TRACK 01 AUDIO TITLE "Joe Turner Blues" PERFORMER "Big Bill Broonzy" INDEX 01 00:00:00 TRACK 02 AUDIO TITLE "Eli Green's Cake-Walk" PERFORMER "Jozeph Cullen & William Collins" INDEX 00 03:50:04FILE "02 - Jozeph Cullen & William Collins - Eli Green's Cake-Walk.wav" WAVE INDEX 01 00:00:00 TRACK 03 AUDIO TITLE "Gabriel's Trumpet" PERFORMER "Dinwiddie Colored Quartet" INDEX 00 02:08:47FILE "03 - Dinwiddie Colored Quartet - Gabriel's Trumpet.wav" WAVE INDEX 01 00:00:00 TRACK 04 AUDIO TITLE "Cake-Walk In The Sky" PERFORMER "Victor Dance Orchestra" INDEX 00 02:33:55FILE "04 - Victor Dance Orchestra - Cake-Walk In The Sky.wav" WAVE INDEX 01 00:00:00 TRACK 05 AUDIO TITLE "Sant-Louis Tickle" PERFORMER "Vess L. Ossman" INDEX 00 03:36:53FILE "05 - Vess L. Ossman - Sant-Louis Tickle.wav" WAVE INDEX 01 00:00:00 TRACK 06 AUDIO TITLE "A Bunch Of Rags" PERFORMER "Vess L. Ossman" INDEX 00 02:56:34FILE "06 - Vess L. Ossman - A Bunch Of Rags.wav" WAVE INDEX 01 00:00:00 TRACK 07 AUDIO TITLE "Castle House Rag" PERFORMER "Europe's Society Orchestra" INDEX 00 02:16:20FILE "07 - Europe's Society Orchestra - Castle House Rag.wav" WAVE INDEX 01 00:00:00 TRACK 08 AUDIO TITLE "Notoriety Rag" PERFORMER "Fred Van Eps" INDEX 00 03:13:13FILE "08 - Fred Van Eps - Notoriety Rag.wav" WAVE INDEX 01 00:00:00 TRACK 09 AUDIO TITLE "The Cascades" PERFORMER "Scott Joplin" INDEX 00 02:51:35FILE "09 - Scott Joplin - The Cascades.wav" WAVE INDEX 01 00:00:00 TRACK 10 AUDIO TITLE "Charleston Rag" PERFORMER "Eubie Blake" INDEX 00 02:06:11FILE "10 - Eubie Blake - Charleston Rag.wav" WAVE INDEX 01 00:00:00 TRACK 11 AUDIO TITLE "Dixie Jazz Band One Step" PERFORMER "Original Dixieland Jazz Band" INDEX 00 03:03:27FILE "11 - Original Dixieland Jazz Band - Dixie Jass Band One Step.wav" WAVE INDEX 01 00:00:00 TRACK 12 AUDIO TITLE "Tiger Rag" PERFORMER "Original Dixieland Jazz Band" INDEX 00 02:29:68FILE "12 - Original Dixieland Jazz Band - Tiger Rag.wav" WAVE INDEX 01 00:00:00 TRACK 13 AUDIO TITLE "Carolina Shout" PERFORMER "James P. Johnson" INDEX 00 03:05:37FILE "13 - James P. Johnson - Carolina Shout.wav" WAVE INDEX 01 00:00:00 TRACK 14 AUDIO TITLE "Just Gone" PERFORMER "King Oliver" INDEX 00 02:44:55FILE "14 - King Oliver - Just Gone.wav" WAVE INDEX 01 00:00:00 TRACK 15 AUDIO TITLE "Dipper Mouth Blues" PERFORMER "King Oliver" INDEX 00 02:40:32FILE "15 - King Oliver - Dipper Mouth Blues.wav" WAVE INDEX 01 00:00:00 TRACK 16 AUDIO TITLE "Canal Street Blues" PERFORMER "King Oliver" INDEX 00 02:12:43FILE "16 - King Oliver - Canal Street Blues.wav" WAVE INDEX 01 00:00:00 TRACK 17 AUDIO TITLE "New Orleans Joys" PERFORMER "Jelly Roll Morton" INDEX 00 02:25:13FILE "17 - Jelly Roll Morton - New Orleans Joys.wav" WAVE INDEX 01 00:00:00 TRACK 18 AUDIO TITLE "Toddlin'" PERFORMER "James P. Johnson" INDEX 00 02:42:60FILE "18 - James P. Johnson - Toddlin'.wav" WAVE INDEX 01 00:00:00 TRACK 19 AUDIO TITLE "Mama's Got The Blues" PERFORMER "Fats Waller" INDEX 00 02:41:69FILE "19 - Fats Waller - Mama's Got The Blues.wav" WAVE INDEX 01 00:00:00 TRACK 20 AUDIO TITLE "Lonesome Woman Blues" PERFORMER "Rosetta Crawford" INDEX 00 02:50:56FILE "20 - Rosetta Crawford - Lonesome Woman Blues.wav" WAVE INDEX 01 00:00:00 TRACK 21 AUDIO TITLE "Any Woman's Blues" PERFORMER "Bessie Smith" INDEX 00 03:03:01FILE "21 - Bessie Smith - Any Woman's Blues.wav" WAVE INDEX 01 00:00:00 TRACK 22 AUDIO TITLE "Mama's Gone Goodbye" PERFORMER "Bessie Smith" INDEX 00 03:21:64FILE "22 - Piron's New Orleans Orchestra - Mama's Gone Goodbye.wav" WAVE INDEX 01 00:00:00 TRACK 23 AUDIO TITLE "Copenhagen" PERFORMER "Fletcher Henderson" INDEX 00 02:59:69FILE "23 - Fletcher Henderson - Copenhagen.wav" WAVE INDEX 01 00:00:00 TRACK 24 AUDIO TITLE "Saint-Louis Blues" PERFORMER "Bessie Smith & Louis Armstrong" INDEX 00 02:54:07FILE "24 - Bessie Smith & Louis Armstrong - Saint-Louis Blues.wav" WAVE INDEX 01 00:00:00 TRACK 25 AUDIO TITLE "Sobbin' Hearted Blues" PERFORMER "Bessie Smith" INDEX 00 03:07:38FILE "25 - Bessie Smith - Sobbin' Hearted Blues.wav" WAVE INDEX 01 00:00:00 TRACK 26 AUDIO TITLE "Sugar Foot Stomp" PERFORMER "Fletcher Henderson" INDEX 00 02:56:40FILE "26 - Fletcher Henderson - Sugar Foot Stomp.wav" WAVE INDEX 01 00:00:00

CD 02 - 1926-1927


Продолжительность: 1:12:43
Трэклист:
01 - Louis Armstrong - Heebies Jeebies (3:10)
02 - Louis Armstrong - Cornet Chop Suey (2:58)
03 - Louis Armstrong - Muskrat Ramble (2:33)
04 - Birmingham Jubilee Singers - He Took My Sins Away (3:05)
05 - Louis Armstrong - Sweet Little Papa (2:46)
06 - New Orleans Wanderers - Perdido Street Blues (3:11)
07 - Jelly Roll Morton's Red Hot Peppers - The Chant (3:21)
08 - Jelly Roll Morton's Red Hot Peppers - Black Bottom Stomp (3:10)
09 - King Oliver - Someday Sweetheart (2:58)
10 - Fletcher Henderson - The Henderson Stomp (2:54)
11 - Dixieland Jug Blowers - Banjoreno (3:09)
12 - Reverent Gates - I'm Going To Heaven If It Takes My Life (2:48)
13 - Frankie Trumbauer - Clarinet Marmalade (3:16)
14 - James P. Johnson - All That I Had Is Gone (2:47)
15 - Louis Armstrong - Wild Man Blues (3:12)
16 - Louis Armstrong - S.O.L.Blues (2:55)
17 - Sugar Underwood - Davis Street Blues (3:14)
18 - Bix Beiderbecke - In A Mist (2:47)
19 - Ma Rainey - New Bow-Weawil Blues (2:52)
20 - Bix Beiderbecke - Jazz Me Blues (3:06)
21 - Bix Beiderbecke - Since My Best Gal Turned Me Down (3:07)
22 - Duke Ellington - Black And Tan Fantasy (3:08)
23 - Duke Ellington - Creole Love Call (3:13)
24 - Louis Armstrong - Struttin' With Some Barbecue (3:03)

log

Exact Audio Copy V1.0 beta 3 from 29. August 2011
EAC extraction logfile from 28. March 2012, 11:45
VA / Les Trésors Du Jazz 1898-1925 - Cd02 - 1926-1927
Used drive : LITE-ON CD-RW SOHR-5238S Adapter: 1 ID: 0
Read mode : SecureUtilize accurate stream : YesDefeat audio cache : YesMake use of C2 pointers : No
Read offset correction : 6Overread into Lead-In and Lead-Out : NoFill up missing offset samples with silence : YesDelete leading and trailing silent blocks : NoNull samples used in CRC calculations : YesUsed interface : Native Win32 interface for Win NT & 2000Gap handling : Appended to previous track
Used output format : User Defined EncoderSelected bitrate : 1024 kBit/sQuality : HighAdd ID3 tag : NoCommand line compressor : C:\Program Files\Exact Audio Copy\Flac\flac.exeAdditional command line options : -8 -V -T "ARTIST=%artist%" -T "TITLE=%title%" -T "ALBUM=%albumtitle%" -T "DATE=%year%" -T "TRACKNUMBER=%tracknr%" -T "GENRE=%genre%" -T "PERFORMER=%albuminterpret%" -T "COMPOSER=%composer%" %haslyrics%--tag-from-file=LYRICS="%lyricsfile%"%haslyrics% -T "ALBUMARTIST=%albumartist%" -T "ALBUM ARTIST=%albumartist%" -T "DISCNUMBER=%cdnumber%" -T "TOTALDISCS=%totalcds%" -T "TOTALTRACKS=%numtracks%" -T "COMMENT=EAC V1.0 beta 2, Secure Mode, Test & Copy, AccurateRip, FLAC -8" %source% -o %dest%
TOC of the extracted CD
Track | Start | Length | Start sector | End sector --------------------------------------------------------- 1 | 0:00.00 | 3:10.29 | 0 | 14278 2 | 3:10.29 | 2:57.68 | 14279 | 27621 3 | 6:08.22 | 2:33.05 | 27622 | 39101 4 | 8:41.27 | 3:04.48 | 39102 | 52949 5 | 11:46.00 | 2:45.53 | 52950 | 65377 6 | 14:31.53 | 3:11.37 | 65378 | 79739 7 | 17:43.15 | 3:21.00 | 79740 | 94814 8 | 21:04.15 | 3:09.71 | 94815 | 109060 9 | 24:14.11 | 2:57.60 | 109061 | 122395 10 | 27:11.71 | 2:53.62 | 122396 | 135432 11 | 30:05.58 | 3:09.35 | 135433 | 149642 12 | 33:15.18 | 2:47.49 | 149643 | 162216 13 | 36:02.67 | 3:16.19 | 162217 | 176935 14 | 39:19.11 | 2:47.00 | 176936 | 189460 15 | 42:06.11 | 3:11.70 | 189461 | 203855 16 | 45:18.06 | 2:55.20 | 203856 | 217000 17 | 48:13.26 | 3:13.62 | 217001 | 231537 18 | 51:27.13 | 2:47.22 | 231538 | 244084 19 | 54:14.35 | 2:51.51 | 244085 | 256960 20 | 57:06.11 | 3:05.60 | 256961 | 270895 21 | 60:11.71 | 3:07.04 | 270896 | 284924 22 | 63:19.00 | 3:08.33 | 284925 | 299057 23 | 66:27.33 | 3:13.14 | 299058 | 313546 24 | 69:40.47 | 3:02.61 | 313547 | 327257
Track 1
Filename D:\Downloads\VA - Les Trésors Du Jazz 1898-1925 2002 Flac\Cd02 - 1926-1927\01 Louis Armstrong - Heebies Jeebies.wav
Pre-gap length 0:00:02.00
Peak level 93.7 % Extraction speed 2.0 X Track quality 100.0 % Test CRC C611852B Copy CRC C611852B Accurately ripped (confidence 4) [AD05FED4] (AR v1) Copy OK
Track 2
Filename D:\Downloads\VA - Les Trésors Du Jazz 1898-1925 2002 Flac\Cd02 - 1926-1927\02 Louis Armstrong - Cornet Chop Suey.wav
Pre-gap length 0:00:03.60
Peak level 93.7 % Extraction speed 2.1 X Track quality 100.0 % Test CRC 5C0CFF32 Copy CRC 5C0CFF32 Accurately ripped (confidence 4) [E81DE3AB] (AR v1) Copy OK
Track 3
Filename D:\Downloads\VA - Les Trésors Du Jazz 1898-1925 2002 Flac\Cd02 - 1926-1927\03 Louis Armstrong - Muskrat Ramble.wav
Pre-gap length 0:00:03.60
Peak level 93.7 % Extraction speed 1.7 X Track quality 99.9 % Test CRC A9A336A2 Copy CRC A9A336A2 Accurately ripped (confidence 4) [F0D4277D] (AR v1) Copy OK
Track 4
Filename D:\Downloads\VA - Les Trésors Du Jazz 1898-1925 2002 Flac\Cd02 - 1926-1927\04 Birmingham Jubilee Singers - He Took My Sins Away.wav
Pre-gap length 0:00:03.60
Peak level 74.4 % Extraction speed 2.1 X Track quality 100.0 % Test CRC A5AE7092 Copy CRC A5AE7092 Accurately ripped (confidence 4) [41990C98] (AR v1) Copy OK
Track 5
Filename D:\Downloads\VA - Les Trésors Du Jazz 1898-1925 2002 Flac\Cd02 - 1926-1927\05 Louis Armstrong - Sweet Little Papa.wav
Pre-gap length 0:00:03.60
Peak level 93.7 % Extraction speed 2.0 X Track quality 100.0 % Test CRC A39A6606 Copy CRC A39A6606 Accurately ripped (confidence 4) [039C27E7] (AR v1) Copy OK
Track 6
Filename D:\Downloads\VA - Les Trésors Du Jazz 1898-1925 2002 Flac\Cd02 - 1926-1927\06 New Orleans Wanderers - Perdido Street Blues.wav
Pre-gap length 0:00:03.60
Peak level 86.8 % Extraction speed 2.1 X Track quality 100.0 % Test CRC 8F99DC3F Copy CRC 8F99DC3F Accurately ripped (confidence 4) [5F068E3D] (AR v1) Copy OK
Track 7
Filename D:\Downloads\VA - Les Trésors Du Jazz 1898-1925 2002 Flac\Cd02 - 1926-1927\07 Jelly Roll Morton's Red Hot Peppers - The Chant.wav
Pre-gap length 0:00:03.60
Peak level 85.7 % Extraction speed 2.1 X Track quality 100.0 % Test CRC 3CCFB2FC Copy CRC 3CCFB2FC Accurately ripped (confidence 4) [3CD1D83C] (AR v1) Copy OK
Track 8
Filename D:\Downloads\VA - Les Trésors Du Jazz 1898-1925 2002 Flac\Cd02 - 1926-1927\08 Jelly Roll Morton's Red Hot Peppers - Black Bottom Stomp.wav
Pre-gap length 0:00:03.60
Peak level 85.1 % Extraction speed 2.1 X Track quality 100.0 % Test CRC 03704AC2 Copy CRC 03704AC2 Accurately ripped (confidence 4) [4E476AC2] (AR v1) Copy OK
Track 9
Filename D:\Downloads\VA - Les Trésors Du Jazz 1898-1925 2002 Flac\Cd02 - 1926-1927\09 King Oliver - Someday Sweetheart.wav
Pre-gap length 0:00:03.60
Peak level 83.5 % Extraction speed 2.1 X Track quality 100.0 % Test CRC 2749524B Copy CRC 2749524B Accurately ripped (confidence 5) [DD22AB0E] (AR v1) Copy OK
Track 10
Filename D:\Downloads\VA - Les Trésors Du Jazz 1898-1925 2002 Flac\Cd02 - 1926-1927\10 Fletcher Henderson - The Henderson Stomp.wav
Pre-gap length 0:00:03.60
Peak level 83.5 % Extraction speed 2.0 X Track quality 100.0 % Test CRC 9C98C5B8 Copy CRC 9C98C5B8 Accurately ripped (confidence 5) [95350BBB] (AR v1) Copy OK
Track 11
Filename D:\Downloads\VA - Les Trésors Du Jazz 1898-1925 2002 Flac\Cd02 - 1926-1927\11 Dixieland Jug Blowers - Banjoreno.wav
Pre-gap length 0:00:03.60
Peak level 83.5 % Extraction speed 2.1 X Track quality 100.0 % Test CRC 0C497C27 Copy CRC 0C497C27 Accurately ripped (confidence 5) [24C62E58] (AR v1) Copy OK
Track 12
Filename D:\Downloads\VA - Les Trésors Du Jazz 1898-1925 2002 Flac\Cd02 - 1926-1927\12 Reverent Gates - I'm Going To Heaven If It Takes My Life.wav
Pre-gap length 0:00:03.60
Peak level 93.7 % Extraction speed 1.7 X Track quality 99.9 % Test CRC 17EBD7CE Copy CRC 17EBD7CE Accurately ripped (confidence 5) [1BFCBC2C] (AR v1) Copy OK
Track 13
Filename D:\Downloads\VA - Les Trésors Du Jazz 1898-1925 2002 Flac\Cd02 - 1926-1927\13 Frankie Trumbauer - Clarinet Marmalade.wav
Pre-gap length 0:00:03.60
Peak level 88.5 % Extraction speed 2.1 X Track quality 100.0 % Test CRC 5810FB75 Copy CRC 5810FB75 Accurately ripped (confidence 5) [B9B44850] (AR v1) Copy OK
Track 14
Filename D:\Downloads\VA - Les Trésors Du Jazz 1898-1925 2002 Flac\Cd02 - 1926-1927\14 James P. Johnson - All That I Had Is Gone.wav
Pre-gap length 0:00:03.60
Peak level 70.4 % Extraction speed 1.7 X Track quality 99.9 % Test CRC 444CFDD3 Copy CRC 444CFDD3 Accurately ripped (confidence 5) [850857E5] (AR v1) Copy OK
Track 15
Filename D:\Downloads\VA - Les Trésors Du Jazz 1898-1925 2002 Flac\Cd02 - 1926-1927\15 Louis Armstrong - Wild Man Blues.wav
Pre-gap length 0:00:03.60
Peak level 83.5 % Extraction speed 2.1 X Track quality 100.0 % Test CRC A0B23F0F Copy CRC A0B23F0F Accurately ripped (confidence 5) [83046505] (AR v1) Copy OK
Track 16
Filename D:\Downloads\VA - Les Trésors Du Jazz 1898-1925 2002 Flac\Cd02 - 1926-1927\16 Louis Armstrong - S.O.L.Blues.wav
Pre-gap length 0:00:03.60
Peak level 81.1 % Extraction speed 1.8 X Track quality 99.9 % Test CRC EA74943B Copy CRC EA74943B Accurately ripped (confidence 5) [796A2874] (AR v1) Copy OK
Track 17
Filename D:\Downloads\VA - Les Trésors Du Jazz 1898-1925 2002 Flac\Cd02 - 1926-1927\17 Sugar Underwood - Davis Street Blues.wav
Pre-gap length 0:00:03.60
Peak level 74.4 % Extraction speed 2.1 X Track quality 100.0 % Test CRC 703ACF66 Copy CRC 703ACF66 Accurately ripped (confidence 5) [1D37DBC2] (AR v1) Copy OK
Track 18
Filename D:\Downloads\VA - Les Trésors Du Jazz 1898-1925 2002 Flac\Cd02 - 1926-1927\18 Bix Beiderbecke - In A Mist.wav
Pre-gap length 0:00:03.60
Peak level 82.5 % Extraction speed 1.7 X Track quality 99.9 % Test CRC AFEAFC34 Copy CRC AFEAFC34 Accurately ripped (confidence 5) [437AD479] (AR v1) Copy OK
Track 19
Filename D:\Downloads\VA - Les Trésors Du Jazz 1898-1925 2002 Flac\Cd02 - 1926-1927\19 Ma Rainey - New Bow-Weawil Blues.wav
Pre-gap length 0:00:03.60
Peak level 93.7 % Extraction speed 2.0 X Track quality 100.0 % Test CRC F9C36634 Copy CRC F9C36634 Accurately ripped (confidence 5) [9832ECD0] (AR v1) Copy OK
Track 20
Filename D:\Downloads\VA - Les Trésors Du Jazz 1898-1925 2002 Flac\Cd02 - 1926-1927\20 Bix Beiderbecke - Jazz Me Blues.wav
Pre-gap length 0:00:03.60
Peak level 83.5 % Extraction speed 2.1 X Track quality 100.0 % Test CRC 81FEFFE9 Copy CRC 81FEFFE9 Accurately ripped (confidence 5) [063A4C1F] (AR v1) Copy OK
Track 21
Filename D:\Downloads\VA - Les Trésors Du Jazz 1898-1925 2002 Flac\Cd02 - 1926-1927\21 Bix Beiderbecke - Since My Best Gal Turned Me Down.wav
Pre-gap length 0:00:03.60
Peak level 83.5 % Extraction speed 2.1 X Track quality 100.0 % Test CRC 1FB848F9 Copy CRC 1FB848F9 Accurately ripped (confidence 5) [5B816934] (AR v1) Copy OK
Track 22
Filename D:\Downloads\VA - Les Trésors Du Jazz 1898-1925 2002 Flac\Cd02 - 1926-1927\22 Duke Ellington - Black And Tan Fantasy.wav
Pre-gap length 0:00:03.60
Peak level 93.7 % Extraction speed 2.1 X Track quality 100.0 % Test CRC FD93BB2C Copy CRC FD93BB2C Accurately ripped (confidence 5) [7416F152] (AR v1) Copy OK
Track 23
Filename D:\Downloads\VA - Les Trésors Du Jazz 1898-1925 2002 Flac\Cd02 - 1926-1927\23 Duke Ellington - Creole Love Call.wav
Pre-gap length 0:00:03.60
Peak level 93.7 % Extraction speed 1.8 X Track quality 99.9 % Test CRC 429448E3 Copy CRC 429448E3 Accurately ripped (confidence 5) [6F2A5F02] (AR v1) Copy OK
Track 24
Filename D:\Downloads\VA - Les Trésors Du Jazz 1898-1925 2002 Flac\Cd02 - 1926-1927\24 Louis Armstrong - Struttin' With Some Barbecue.wav
Pre-gap length 0:00:03.60
Peak level 83.5 % Extraction speed 2.1 X Track quality 100.0 % Test CRC A4533CFA Copy CRC A4533CFA Accurately ripped (confidence 5) [76CCBFD5] (AR v1) Copy OK
All tracks accurately ripped
No errors occurred
End of status report
---- CUETools DB Plugin V2.1.3
[CTDB TOCID: FcSSHEmyO9Q0mo8Z6C0VTrO7qQs-] found, Submit result: FcSSHEmyO9Q0mo8Z6C0VTrO7qQs- has been confirmed[ee6846d4] (1/1) Accurately ripped
==== Log checksum 998ED5C423E8E59022F7BC42524ADBBA3D192861939F0BFE79949C130288E5C1 ====

.cue

REM GENRE JazzREM DATE 2002REM DISCID 6D110B18REM COMMENT "ExactAudioCopy v1.0b3"FILE "01 - Louis Armstrong - Heebies Jeebies.wav" WAVE TRACK 01 AUDIO TITLE "Heebies Jeebies" PERFORMER "Louis Armstrong" INDEX 01 00:00:00 TRACK 02 AUDIO TITLE "Cornet Chop Suey" PERFORMER "Louis Armstrong" INDEX 00 03:06:59FILE "02 - Louis Armstrong - Cornet Chop Suey.wav" WAVE INDEX 01 00:00:00 TRACK 03 AUDIO TITLE "Muskrat Ramble" PERFORMER "Louis Armstrong" INDEX 00 02:54:23FILE "03 - Louis Armstrong - Muskrat Ramble.wav" WAVE INDEX 01 00:00:00 TRACK 04 AUDIO TITLE "He Took My Sins Away" PERFORMER "Birmingham Jubilee Singers" INDEX 00 02:29:35FILE "04 - Birmingham Jubilee Singers - He Took My Sins Away.wav" WAVE INDEX 01 00:00:00 TRACK 05 AUDIO TITLE "Sweet Little Papa" PERFORMER "Louis Armstrong" INDEX 00 03:01:03FILE "05 - Louis Armstrong - Sweet Little Papa.wav" WAVE INDEX 01 00:00:00 TRACK 06 AUDIO TITLE "Perdido Street Blues" PERFORMER "New Orleans Wanderers" INDEX 00 02:42:08FILE "06 - New Orleans Wanderers - Perdido Street Blues.wav" WAVE INDEX 01 00:00:00 TRACK 07 AUDIO TITLE "The Chant" PERFORMER "Jelly Roll Morton's Red Hot Peppers" INDEX 00 03:07:67FILE "07 - Jelly Roll Morton's Red Hot Peppers - The Chant.wav" WAVE INDEX 01 00:00:00 TRACK 08 AUDIO TITLE "Black Bottom Stomp" PERFORMER "Jelly Roll Morton's Red Hot Peppers" INDEX 00 03:17:30FILE "08 - Jelly Roll Morton's Red Hot Peppers - Black Bottom Stomp.wav" WAVE INDEX 01 00:00:00 TRACK 09 AUDIO TITLE "Someday Sweetheart" PERFORMER "King Oliver" INDEX 00 03:06:26FILE "09 - King Oliver - Someday Sweetheart.wav" WAVE INDEX 01 00:00:00 TRACK 10 AUDIO TITLE "The Henderson Stomp" PERFORMER "Fletcher Henderson" INDEX 00 02:54:15FILE "10 - Fletcher Henderson - The Henderson Stomp.wav" WAVE INDEX 01 00:00:00 TRACK 11 AUDIO TITLE "Banjoreno" PERFORMER "Dixieland Jug Blowers" INDEX 00 02:50:17FILE "11 - Dixieland Jug Blowers - Banjoreno.wav" WAVE INDEX 01 00:00:00 TRACK 12 AUDIO TITLE "I'm Going To Heaven If It Takes My Life" PERFORMER "Reverent Gates" INDEX 00 03:05:65FILE "12 - Reverent Gates - I'm Going To Heaven If It Takes My Life.wav" WAVE INDEX 01 00:00:00 TRACK 13 AUDIO TITLE "Clarinet Marmalade" PERFORMER "Frankie Trumbauer" INDEX 00 02:44:04FILE "13 - Frankie Trumbauer - Clarinet Marmalade.wav" WAVE INDEX 01 00:00:00 TRACK 14 AUDIO TITLE "All That I Had Is Gone" PERFORMER "James P. Johnson" INDEX 00 03:12:49FILE "14 - James P. Johnson - All That I Had Is Gone.wav" WAVE INDEX 01 00:00:00 TRACK 15 AUDIO TITLE "Wild Man Blues" PERFORMER "Louis Armstrong" INDEX 00 02:43:30FILE "15 - Louis Armstrong - Wild Man Blues.wav" WAVE INDEX 01 00:00:00 TRACK 16 AUDIO TITLE "S.O.L.Blues" PERFORMER "Louis Armstrong" INDEX 00 03:08:25FILE "16 - Louis Armstrong - S.O.L.Blues.wav" WAVE INDEX 01 00:00:00 TRACK 17 AUDIO TITLE "Davis Street Blues" PERFORMER "Sugar Underwood" INDEX 00 02:51:50FILE "17 - Sugar Underwood - Davis Street Blues.wav" WAVE INDEX 01 00:00:00 TRACK 18 AUDIO TITLE "In A Mist" PERFORMER "Bix Beiderbecke" INDEX 00 03:10:17FILE "18 - Bix Beiderbecke - In A Mist.wav" WAVE INDEX 01 00:00:00 TRACK 19 AUDIO TITLE "New Bow-Weawil Blues" PERFORMER "Ma Rainey" INDEX 00 02:43:52FILE "19 - Ma Rainey - New Bow-Weawil Blues.wav" WAVE INDEX 01 00:00:00 TRACK 20 AUDIO TITLE "Jazz Me Blues" PERFORMER "Bix Beiderbecke" INDEX 00 02:48:06FILE "20 - Bix Beiderbecke - Jazz Me Blues.wav" WAVE INDEX 01 00:00:00 TRACK 21 AUDIO TITLE "Since My Best Gal Turned Me Down" PERFORMER "Bix Beiderbecke" INDEX 00 03:02:15FILE "21 - Bix Beiderbecke - Since My Best Gal Turned Me Down.wav" WAVE INDEX 01 00:00:00 TRACK 22 AUDIO TITLE "Black And Tan Fantasy" PERFORMER "Duke Ellington" INDEX 00 03:03:34FILE "22 - Duke Ellington - Black And Tan Fantasy.wav" WAVE INDEX 01 00:00:00 TRACK 23 AUDIO TITLE "Creole Love Call" PERFORMER "Duke Ellington" INDEX 00 03:04:63FILE "23 - Duke Ellington - Creole Love Call.wav" WAVE INDEX 01 00:00:00 TRACK 24 AUDIO TITLE "Struttin' With Some Barbecue" PERFORMER "Louis Armstrong" INDEX 00 03:09:44FILE "24 - Louis Armstrong - Struttin' With Some Barbecue.wav" WAVE INDEX 01 00:00:00

CD 03 - 1928-1929


Продолжительность: 1:13:12
Трэклист:
01 - Duke Ellington - Jubilee Stomp (2:47)
02 - Bessie Smith - Empty Bed Blues (3:04)
03 - Joe Venuti's Blue Four - Doin' Things (2:47)
04 - Louis Armstrong - Fireworks (3:07)
05 - Louis Armstrong - West End Blues (3:19)
06 - Johnny Dodds Trio - Blue Clarinet Stomp (3:14)
07 - Miff Mole's Molers - Shim-Me-Sha-Wabble (3:04)
08 - Jimmy Noone - Apex Blues (3:11)
09 - Bennie Moten's Kansas City Orchestra - South (2:36)
10 - Duke Ellington - The Mooche (3:18)
11 - Duke Ellington - Hot And Bothered (3:20)
12 - McKinney's Cotton Pickers - It's Tight Like That (2:44)
13 - Earl Hines - Weather Bird (2:45)
14 - Earl Hines - Chimes Blues (2:57)
15 - Louis Armstrong - St. James Infirmary (3:23)
16 - Louis Armstrong - Tight Like This (3:21)
17 - Pinetop Smith - Pinetop's Boogie Woogie (3:14)
18 - Clarence Williams - Too Low (2:59)
19 - Fats Waller - Handful Of Keys (2:48)
20 - Frankie Trumbauer - Raisin The Roof (3:06)
21 - Lonnie Johnson & Eddie Lang - Blue Guitars (3:13)
22 - Jelly Roll Morton - Freakish (2:58)
23 - Earl Hines - Beau Koo Jack (2:44)
24 - Mound City Blue Blowers - Hello Lola (3:13)

log

Exact Audio Copy V1.0 beta 3 from 29. August 2011
EAC extraction logfile from 28. March 2012, 13:10
VA / Les Trésors Du Jazz 1898-1943 - Cd03 - 1928-1929
Used drive : LITE-ON CD-RW SOHR-5238S Adapter: 1 ID: 0
Read mode : SecureUtilize accurate stream : YesDefeat audio cache : YesMake use of C2 pointers : No
Read offset correction : 6Overread into Lead-In and Lead-Out : NoFill up missing offset samples with silence : YesDelete leading and trailing silent blocks : NoNull samples used in CRC calculations : YesUsed interface : Native Win32 interface for Win NT & 2000Gap handling : Appended to previous track
Used output format : User Defined EncoderSelected bitrate : 1024 kBit/sQuality : HighAdd ID3 tag : NoCommand line compressor : C:\Program Files\Exact Audio Copy\Flac\flac.exeAdditional command line options : -8 -V -T "ARTIST=%artist%" -T "TITLE=%title%" -T "ALBUM=%albumtitle%" -T "DATE=%year%" -T "TRACKNUMBER=%tracknr%" -T "GENRE=%genre%" -T "PERFORMER=%albuminterpret%" -T "COMPOSER=%composer%" %haslyrics%--tag-from-file=LYRICS="%lyricsfile%"%haslyrics% -T "ALBUMARTIST=%albumartist%" -T "ALBUM ARTIST=%albumartist%" -T "DISCNUMBER=%cdnumber%" -T "TOTALDISCS=%totalcds%" -T "TOTALTRACKS=%numtracks%" -T "COMMENT=EAC V1.0 beta 2, Secure Mode, Test & Copy, AccurateRip, FLAC -8" %source% -o %dest%
TOC of the extracted CD
Track | Start | Length | Start sector | End sector --------------------------------------------------------- 1 | 0:00.00 | 2:46.38 | 0 | 12487 2 | 2:46.38 | 3:04.33 | 12488 | 26320 3 | 5:50.71 | 2:46.59 | 26321 | 38829 4 | 8:37.55 | 3:06.71 | 38830 | 52850 5 | 11:44.51 | 3:18.48 | 52851 | 67748 6 | 15:03.24 | 3:14.03 | 67749 | 82301 7 | 18:17.27 | 3:03.43 | 82302 | 96069 8 | 21:20.70 | 3:11.34 | 96070 | 110428 9 | 24:32.29 | 2:36.28 | 110429 | 122156 10 | 27:08.57 | 3:17.55 | 122157 | 136986 11 | 30:26.37 | 3:19.40 | 136987 | 151951 12 | 33:46.02 | 2:43.52 | 151952 | 164228 13 | 36:29.54 | 2:44.49 | 164229 | 176577 14 | 39:14.28 | 2:56.59 | 176578 | 189836 15 | 42:11.12 | 3:23.34 | 189837 | 205095 16 | 45:34.46 | 3:20.64 | 205096 | 220159 17 | 48:55.35 | 3:13.42 | 220160 | 234676 18 | 52:09.02 | 2:59.22 | 234677 | 248123 19 | 55:08.24 | 2:48.30 | 248124 | 260753 20 | 57:56.54 | 3:06.35 | 260754 | 274738 21 | 61:03.14 | 3:13.30 | 274739 | 289243 22 | 64:16.44 | 2:58.01 | 289244 | 302594 23 | 67:14.45 | 2:44.20 | 302595 | 314914 24 | 69:58.65 | 3:13.35 | 314915 | 329424
Track 1
Filename D:\Downloads\VA - Les Trésors Du Jazz 1898-1943 2002 Flac\Cd03 - 1928-1929\01 Duke Ellington - Jubilee Stomp.wav
Pre-gap length 0:00:02.00
Peak level 93.7 % Extraction speed 2.0 X Track quality 100.0 % Test CRC F9B0071B Copy CRC F9B0071B Accurately ripped (confidence 5) [5B565977] (AR v1) Copy OK
Track 2
Filename D:\Downloads\VA - Les Trésors Du Jazz 1898-1943 2002 Flac\Cd03 - 1928-1929\02 Bessie Smith - Empty Bed Blues.wav
Pre-gap length 0:00:03.60
Peak level 84.2 % Extraction speed 2.1 X Track quality 100.0 % Test CRC 8E0772CA Copy CRC 8E0772CA Accurately ripped (confidence 5) [3105328B] (AR v1) Copy OK
Track 3
Filename D:\Downloads\VA - Les Trésors Du Jazz 1898-1943 2002 Flac\Cd03 - 1928-1929\03 Joe Venuti's Blue Four - Doin' Things.wav
Pre-gap length 0:00:03.60
Peak level 72.4 % Extraction speed 2.0 X Track quality 100.0 % Test CRC 767D4831 Copy CRC 767D4831 Accurately ripped (confidence 5) [BEFFC957] (AR v1) Copy OK
Track 4
Filename D:\Downloads\VA - Les Trésors Du Jazz 1898-1943 2002 Flac\Cd03 - 1928-1929\04 Louis Armstrong - Fireworks.wav
Pre-gap length 0:00:03.60
Peak level 83.5 % Extraction speed 2.1 X Track quality 100.0 % Test CRC 633EBA5B Copy CRC 633EBA5B Accurately ripped (confidence 5) [052430F2] (AR v1) Copy OK
Track 5
Filename D:\Downloads\VA - Les Trésors Du Jazz 1898-1943 2002 Flac\Cd03 - 1928-1929\05 Louis Armstrong - West End Blues.wav
Pre-gap length 0:00:03.60
Peak level 83.5 % Extraction speed 2.1 X Track quality 100.0 % Test CRC 93590783 Copy CRC 93590783 Accurately ripped (confidence 5) [D531C657] (AR v1) Copy OK
Track 6
Filename D:\Downloads\VA - Les Trésors Du Jazz 1898-1943 2002 Flac\Cd03 - 1928-1929\06 Johnny Dodds Trio - Blue Clarinet Stomp.wav
Pre-gap length 0:00:03.60
Peak level 81.8 % Extraction speed 2.1 X Track quality 100.0 % Test CRC C30B3749 Copy CRC C30B3749 Accurately ripped (confidence 5) [29788436] (AR v1) Copy OK
Track 7
Filename D:\Downloads\VA - Les Trésors Du Jazz 1898-1943 2002 Flac\Cd03 - 1928-1929\07 Miff Mole's Molers - Shim-Me-Sha-Wabble.wav
Pre-gap length 0:00:03.60
Peak level 93.7 % Extraction speed 1.8 X Track quality 99.9 % Test CRC A7A7C2DD Copy CRC A7A7C2DD Accurately ripped (confidence 5) [53CB2994] (AR v1) Copy OK
Track 8
Filename D:\Downloads\VA - Les Trésors Du Jazz 1898-1943 2002 Flac\Cd03 - 1928-1929\08 Jimmy Noone - Apex Blues.wav
Pre-gap length 0:00:03.60
Peak level 80.9 % Extraction speed 2.1 X Track quality 100.0 % Test CRC 2A9C569C Copy CRC 2A9C569C Accurately ripped (confidence 5) [26080832] (AR v1) Copy OK
Track 9
Filename D:\Downloads\VA - Les Trésors Du Jazz 1898-1943 2002 Flac\Cd03 - 1928-1929\09 Bennie Moten's Kansas City Orchestra - South.wav
Pre-gap length 0:00:03.60
Peak level 79.2 % Extraction speed 1.7 X Track quality 99.9 % Test CRC 1974E86C Copy CRC 1974E86C Accurately ripped (confidence 5) [AA60A421] (AR v1) Copy OK
Track 10
Filename D:\Downloads\VA - Les Trésors Du Jazz 1898-1943 2002 Flac\Cd03 - 1928-1929\10 Duke Ellington - The Mooche.wav
Pre-gap length 0:00:03.60
Peak level 87.6 % Extraction speed 2.1 X Track quality 100.0 % Test CRC BA5A3099 Copy CRC BA5A3099 Accurately ripped (confidence 5) [48E55284] (AR v1) Copy OK
Track 11
Filename D:\Downloads\VA - Les Trésors Du Jazz 1898-1943 2002 Flac\Cd03 - 1928-1929\11 Duke Ellington - Hot And Bothered.wav
Pre-gap length 0:00:03.60
Peak level 82.2 % Extraction speed 1.8 X Track quality 99.9 % Test CRC 6DF31328 Copy CRC 6DF31328 Accurately ripped (confidence 5) [4A58DFCD] (AR v1) Copy OK
Track 12
Filename D:\Downloads\VA - Les Trésors Du Jazz 1898-1943 2002 Flac\Cd03 - 1928-1929\12 McKinney's Cotton Pickers - It's Tight Like That.wav
Pre-gap length 0:00:03.60
Peak level 86.5 % Extraction speed 1.7 X Track quality 99.9 % Test CRC 99EC4997 Copy CRC 99EC4997 Accurately ripped (confidence 5) [66C3C744] (AR v1) Copy OK
Track 13
Filename D:\Downloads\VA - Les Trésors Du Jazz 1898-1943 2002 Flac\Cd03 - 1928-1929\13 Earl Hines - Weather Bird.wav
Pre-gap length 0:00:03.60
Peak level 86.0 % Extraction speed 1.7 X Track quality 99.9 % Test CRC 42CD43CD Copy CRC 42CD43CD Accurately ripped (confidence 5) [C7F425D2] (AR v1) Copy OK
Track 14
Filename D:\Downloads\VA - Les Trésors Du Jazz 1898-1943 2002 Flac\Cd03 - 1928-1929\14 Earl Hines - Chimes Blues.wav
Pre-gap length 0:00:03.60
Peak level 85.8 % Extraction speed 2.1 X Track quality 100.0 % Test CRC 68574815 Copy CRC 68574815 Accurately ripped (confidence 5) [BFDF37CD] (AR v1) Copy OK
Track 15
Filename D:\Downloads\VA - Les Trésors Du Jazz 1898-1943 2002 Flac\Cd03 - 1928-1929\15 Louis Armstrong - St. James Infirmary.wav
Pre-gap length 0:00:03.60
Peak level 84.0 % Extraction speed 2.1 X Track quality 100.0 % Test CRC 781B88CD Copy CRC 781B88CD Accurately ripped (confidence 5) [20132857] (AR v1) Copy OK
Track 16
Filename D:\Downloads\VA - Les Trésors Du Jazz 1898-1943 2002 Flac\Cd03 - 1928-1929\16 Louis Armstrong - Tight Like This.wav
Pre-gap length 0:00:03.60
Peak level 71.5 % Extraction speed 1.8 X Track quality 99.9 % Test CRC 74374BBB Copy CRC 74374BBB Accurately ripped (confidence 5) [89399091] (AR v1) Copy OK
Track 17
Filename D:\Downloads\VA - Les Trésors Du Jazz 1898-1943 2002 Flac\Cd03 - 1928-1929\17 Pinetop Smith - Pinetop's Boogie Woogie.wav
Pre-gap length 0:00:03.60
Peak level 82.3 % Extraction speed 1.8 X Track quality 99.9 % Test CRC 9AB68739 Copy CRC 9AB68739 Accurately ripped (confidence 5) [10C10C06] (AR v1) Copy OK
Track 18
Filename D:\Downloads\VA - Les Trésors Du Jazz 1898-1943 2002 Flac\Cd03 - 1928-1929\18 Clarence Williams - Too Low.wav
Pre-gap length 0:00:03.60
Peak level 79.2 % Extraction speed 1.8 X Track quality 99.9 % Test CRC 9FC37485 Copy CRC 9FC37485 Accurately ripped (confidence 5) [C3A93F77] (AR v1) Copy OK
Track 19
Filename D:\Downloads\VA - Les Trésors Du Jazz 1898-1943 2002 Flac\Cd03 - 1928-1929\19 Fats Waller - Handful Of Keys.wav
Pre-gap length 0:00:03.60
Peak level 74.4 % Extraction speed 2.1 X Track quality 100.0 % Test CRC 2E7DA9F9 Copy CRC 2E7DA9F9 Accurately ripped (confidence 5) [F405076B] (AR v1) Copy OK
Track 20
Filename D:\Downloads\VA - Les Trésors Du Jazz 1898-1943 2002 Flac\Cd03 - 1928-1929\20 Frankie Trumbauer - Raisin The Roof.wav
Pre-gap length 0:00:03.60
Peak level 86.5 % Extraction speed 2.0 X Track quality 100.0 % Test CRC 92135667 Copy CRC 92135667 Accurately ripped (confidence 5) [2A0BB4E0] (AR v1) Copy OK
Track 21
Filename D:\Downloads\VA - Les Trésors Du Jazz 1898-1943 2002 Flac\Cd03 - 1928-1929\21 Lonnie Johnson & Eddie Lang - Blue Guitars.wav
Pre-gap length 0:00:03.60
Peak level 99.6 % Extraction speed 2.1 X Track quality 100.0 % Test CRC 0DC2A517 Copy CRC 0DC2A517 Accurately ripped (confidence 5) [8915538A] (AR v1) Copy OK
Track 22
Filename D:\Downloads\VA - Les Trésors Du Jazz 1898-1943 2002 Flac\Cd03 - 1928-1929\22 Jelly Roll Morton - Freakish.wav
Pre-gap length 0:00:03.60
Peak level 80.9 % Extraction speed 2.0 X Track quality 100.0 % Test CRC 19515251 Copy CRC 19515251 Accurately ripped (confidence 5) [161ABDBF] (AR v1) Copy OK
Track 23
Filename D:\Downloads\VA - Les Trésors Du Jazz 1898-1943 2002 Flac\Cd03 - 1928-1929\23 Earl Hines - Beau Koo Jack.wav
Pre-gap length 0:00:03.60
Peak level 74.1 % Extraction speed 2.1 X Track quality 100.0 % Test CRC 4E4F2DE6 Copy CRC 4E4F2DE6 Accurately ripped (confidence 5) [1DBB50BF] (AR v1) Copy OK
Track 24
Filename D:\Downloads\VA - Les Trésors Du Jazz 1898-1943 2002 Flac\Cd03 - 1928-1929\24 Mound City Blue Blowers - Hello Lola.wav
Pre-gap length 0:00:03.60
Peak level 86.0 % Extraction speed 2.1 X Track quality 100.0 % Test CRC 83CDFF11 Copy CRC 83CDFF11 Accurately ripped (confidence 5) [5731308F] (AR v1) Copy OK
All tracks accurately ripped
No errors occurred
End of status report
---- CUETools DB Plugin V2.1.3
[CTDB TOCID: B.BFccHUIkINS72sKdDRvwByKDM-] found, Submit result: B.BFccHUIkINS72sKdDRvwByKDM- has been confirmed[7e5d9e73] (1/1) Accurately ripped
==== Log checksum 666AB77EF2FFD545964075CCB9046EDCB496CC0DBC32AFA99025774AEAE05798 ====

.cue

REM GENRE JazzREM DATE 2002REM DISCID 54112818REM COMMENT "ExactAudioCopy v1.0b3"FILE "01 - Duke Ellington - Jubilee Stomp.wav" WAVE TRACK 01 AUDIO TITLE "Jubilee Stomp" PERFORMER "Duke Ellington" INDEX 01 00:00:00 TRACK 02 AUDIO TITLE "Empty Bed Blues" PERFORMER "Bessie Smith" INDEX 00 02:42:68FILE "02 - Bessie Smith - Empty Bed Blues.wav" WAVE INDEX 01 00:00:00 TRACK 03 AUDIO TITLE "Doin' Things" PERFORMER "Joe Venuti's Blue Four" INDEX 00 03:00:63FILE "03 - Joe Venuti's Blue Four - Doin' Things.wav" WAVE INDEX 01 00:00:00 TRACK 04 AUDIO TITLE "Fireworks" PERFORMER "Louis Armstrong" INDEX 00 02:43:14FILE "04 - Louis Armstrong - Fireworks.wav" WAVE INDEX 01 00:00:00 TRACK 05 AUDIO TITLE "West End Blues" PERFORMER "Louis Armstrong" INDEX 00 03:03:26FILE "05 - Louis Armstrong - West End Blues.wav" WAVE INDEX 01 00:00:00 TRACK 06 AUDIO TITLE "Blue Clarinet Stomp" PERFORMER "Johnny Dodds Trio" INDEX 00 03:15:03FILE "06 - Johnny Dodds Trio - Blue Clarinet Stomp.wav" WAVE INDEX 01 00:00:00 TRACK 07 AUDIO TITLE "Shim Me Sha Wabble" PERFORMER "Miff Mole's Molers" INDEX 00 03:10:33FILE "07 - Miff Mole's Molers - Shim-Me-Sha-Wabble.wav" WAVE INDEX 01 00:00:00 TRACK 08 AUDIO TITLE "Apex Blues" PERFORMER "Jimmie Noone" INDEX 00 02:59:73FILE "08 - Jimmy Noone - Apex Blues.wav" WAVE INDEX 01 00:00:00 TRACK 09 AUDIO TITLE "South" PERFORMER "Bennie Moten's Kansas City Orchestra" INDEX 00 03:07:64FILE "09 - Bennie Moten's Kansas City Orchestra - South.wav" WAVE INDEX 01 00:00:00 TRACK 10 AUDIO TITLE "The Mooche" PERFORMER "Duke Ellington" INDEX 00 02:32:58FILE "10 - Duke Ellington - The Mooche.wav" WAVE INDEX 01 00:00:00 TRACK 11 AUDIO TITLE "Hot And Bothered" PERFORMER "Duke Ellington" INDEX 00 03:14:10FILE "11 - Duke Ellington - Hot And Bothered.wav" WAVE INDEX 01 00:00:00 TRACK 12 AUDIO TITLE "It's Tight Like That" PERFORMER "Mckinney's Cotton Pickers" INDEX 00 03:15:70FILE "12 - McKinney's Cotton Pickers - It's Tight Like That.wav" WAVE INDEX 01 00:00:00 TRACK 13 AUDIO TITLE "Weather Bird" PERFORMER "Earl Hines" INDEX 00 02:40:07FILE "13 - Earl Hines - Weather Bird.wav" WAVE INDEX 01 00:00:00 TRACK 14 AUDIO TITLE "Chimes Blues" PERFORMER "Earl Hines" INDEX 00 02:41:04FILE "14 - Earl Hines - Chimes Blues.wav" WAVE INDEX 01 00:00:00 TRACK 15 AUDIO TITLE "St. James Infirmary" PERFORMER "Louis Armstrong" INDEX 00 02:53:14FILE "15 - Louis Armstrong - St. James Infirmary.wav" WAVE INDEX 01 00:00:00 TRACK 16 AUDIO TITLE "Tight Like This" PERFORMER "Louis Armstrong" INDEX 00 03:19:64FILE "16 - Louis Armstrong - Tight Like This.wav" WAVE INDEX 01 00:00:00 TRACK 17 AUDIO TITLE "Pinetop's Boogie Woogie" PERFORMER "Pinetop Smith" INDEX 00 03:17:19FILE "17 - Pinetop Smith - Pinetop's Boogie Woogie.wav" WAVE INDEX 01 00:00:00 TRACK 18 AUDIO TITLE "Too Low" PERFORMER "Clarence Williams" INDEX 00 03:09:72FILE "18 - Clarence Williams - Too Low.wav" WAVE INDEX 01 00:00:00 TRACK 19 AUDIO TITLE "Handful Of Keys" PERFORMER "Fats Waller" INDEX 00 02:55:52FILE "19 - Fats Waller - Handful Of Keys.wav" WAVE INDEX 01 00:00:00 TRACK 20 AUDIO TITLE "Raisin' The Roof" PERFORMER "Frankie Trumbauer" INDEX 00 02:44:60FILE "20 - Frankie Trumbauer - Raisin The Roof.wav" WAVE INDEX 01 00:00:00 TRACK 21 AUDIO TITLE "Blue Guitars" PERFORMER "Lonnie Johnson & Eddie Lang" INDEX 00 03:02:65FILE "21 - Lonnie Johnson & Eddie Lang - Blue Guitars.wav" WAVE INDEX 01 00:00:00 TRACK 22 AUDIO TITLE "Freakish" PERFORMER "Jelly Roll Morton" INDEX 00 03:09:60FILE "22 - Jelly Roll Morton - Freakish.wav" WAVE INDEX 01 00:00:00 TRACK 23 AUDIO TITLE "Beau Koo Jack" PERFORMER "Earl Hines" INDEX 00 02:54:31FILE "23 - Earl Hines - Beau Koo Jack.wav" WAVE INDEX 01 00:00:00 TRACK 24 AUDIO TITLE "Hello Lola" PERFORMER "Mound City Blue Blowers" INDEX 00 02:40:50FILE "24 - Mound City Blue Blowers - Hello Lola.wav" WAVE INDEX 01 00:00:00

CD 04 - 1929-1935


Продолжительность: 1:14:22
Трэклист:
01 - Jones & Collins Astoria Hot Eight - Duet Stomp (2:55)
02 - James P.Johnson & Clarence Williams - I've Found A New Baby (2:54)
03 - Red Nichols & His Five Pennies - Peg Of My Heart (3:13)
04 - Jimmie Rodgers - Blue Yodel N9 (2:43)
05 - Duke Ellington - Creole Rhapsody (8:26)
06 - Don Redman - Shakin' The African (2:42)
07 - Duke Ellington - Lots O' Fingers (2:15)
08 - Cab Calloway - Minnie The Moocher (3:36)
09 - Sidney Bechet - Sweetie Dear (2:51)
10 - Sidney Bechet - Shag (3:09)
11 - Ethel Waters & Duke Ellington - I Can't Give You Anything But Love (3:08)
12 - Spike Hughes & His Negro Orchestra - Fanfare (2:57)
13 - Fletcher Henderson - Queer Notions (2:33)
14 - Bessie Smith - Gimme A Pigfoot (3:31)
15 - Duke Ellington - Stompy Jones (3:05)
16 - Duke Ellington - Solitude (3:29)
17 - Teddy Wilson - Somebody Loves Me (3:08)
18 - Art Tatum - Moonglow (2:38)
19 - Fletcher Henderson - Shangai Shuffle (3:10)
20 - Spirits Of Rhythm - Shoutin' In That Amen Corner (3:00)
21 - Fats Waller - Viper's Drag (2:59)
22 - Teddy Hill - Here Comes Cookie (3:03)
23 - Willie Bryant - The Sheik Of Araby (2:56)

log

Exact Audio Copy V1.0 beta 3 from 29. August 2011
EAC extraction logfile from 28. March 2012, 14:07
VA / Les Trésors Du Jazz 1898-1943 - Cd04 - 1929-1935
Used drive : LITE-ON CD-RW SOHR-5238S Adapter: 1 ID: 0
Read mode : SecureUtilize accurate stream : YesDefeat audio cache : YesMake use of C2 pointers : No
Read offset correction : 6Overread into Lead-In and Lead-Out : NoFill up missing offset samples with silence : YesDelete leading and trailing silent blocks : NoNull samples used in CRC calculations : YesUsed interface : Native Win32 interface for Win NT & 2000Gap handling : Appended to previous track
Used output format : User Defined EncoderSelected bitrate : 1024 kBit/sQuality : HighAdd ID3 tag : NoCommand line compressor : C:\Program Files\Exact Audio Copy\Flac\flac.exeAdditional command line options : -8 -V -T "ARTIST=%artist%" -T "TITLE=%title%" -T "ALBUM=%albumtitle%" -T "DATE=%year%" -T "TRACKNUMBER=%tracknr%" -T "GENRE=%genre%" -T "PERFORMER=%albuminterpret%" -T "COMPOSER=%composer%" %haslyrics%--tag-from-file=LYRICS="%lyricsfile%"%haslyrics% -T "ALBUMARTIST=%albumartist%" -T "ALBUM ARTIST=%albumartist%" -T "DISCNUMBER=%cdnumber%" -T "TOTALDISCS=%totalcds%" -T "TOTALTRACKS=%numtracks%" -T "COMMENT=EAC V1.0 beta 2, Secure Mode, Test & Copy, AccurateRip, FLAC -8" %source% -o %dest%
TOC of the extracted CD
Track | Start | Length | Start sector | End sector --------------------------------------------------------- 1 | 0:00.00 | 2:55.22 | 0 | 13146 2 | 2:55.22 | 2:53.64 | 13147 | 26185 3 | 5:49.11 | 3:12.64 | 26186 | 40649 4 | 9:02.00 | 2:43.02 | 40650 | 52876 5 | 11:45.02 | 8:26.35 | 52877 | 90861 6 | 20:11.37 | 2:41.59 | 90862 | 102995 7 | 22:53.21 | 2:15.37 | 102996 | 113157 8 | 25:08.58 | 3:36.31 | 113158 | 129388 9 | 28:45.14 | 2:51.03 | 129389 | 142216 10 | 31:36.17 | 3:09.05 | 142217 | 156396 11 | 34:45.22 | 3:07.58 | 156397 | 170479 12 | 37:53.05 | 2:56.41 | 170480 | 183720 13 | 40:49.46 | 2:33.25 | 183721 | 195220 14 | 43:22.71 | 3:31.15 | 195221 | 211060 15 | 46:54.11 | 3:05.30 | 211061 | 224965 16 | 49:59.41 | 3:28.42 | 224966 | 240607 17 | 53:28.08 | 3:07.39 | 240608 | 254671 18 | 56:35.47 | 2:38.36 | 254672 | 266557 19 | 59:14.08 | 3:09.74 | 266558 | 280806 20 | 62:24.07 | 2:59.59 | 280807 | 294290 21 | 65:23.66 | 2:59.20 | 294291 | 307735 22 | 68:23.11 | 3:03.01 | 307736 | 321461 23 | 71:26.12 | 2:55.70 | 321462 | 334656
Track 1
Filename D:\Downloads\VA - Les Trésors Du Jazz 1898-1943 2002 Flac\Cd04 - 1929-1935\01 Jones & Collins Astoria Hot Eight - Duet Stomp.wav
Pre-gap length 0:00:02.00
Peak level 100.0 % Extraction speed 3.1 X Track quality 99.9 % Test CRC 49508ABC Copy CRC 49508ABC Accurately ripped (confidence 5) [7EDB81B7] (AR v1) Copy OK
Track 2
Filename D:\Downloads\VA - Les Trésors Du Jazz 1898-1943 2002 Flac\Cd04 - 1929-1935\02 James P.Johnson & Clarence Williams - I've Found A New Baby.wav
Pre-gap length 0:00:03.60
Peak level 93.7 % Extraction speed 3.9 X Track quality 100.0 % Test CRC C15D2FEC Copy CRC C15D2FEC Accurately ripped (confidence 5) [0F62A88F] (AR v1) Copy OK
Track 3
Filename D:\Downloads\VA - Les Trésors Du Jazz 1898-1943 2002 Flac\Cd04 - 1929-1935\03 Red Nichols & His Five Pennies - Peg Of My Heart.wav
Pre-gap length 0:00:03.60
Peak level 89.9 % Extraction speed 4.3 X Track quality 100.0 % Test CRC 64D4F183 Copy CRC 64D4F183 Accurately ripped (confidence 5) [CF94E12F] (AR v1) Copy OK
Track 4
Filename D:\Downloads\VA - Les Trésors Du Jazz 1898-1943 2002 Flac\Cd04 - 1929-1935\04 Jimmie Rodgers - Blue Yodel N9.wav
Pre-gap length 0:00:03.60
Peak level 81.6 % Extraction speed 3.8 X Track quality 99.9 % Test CRC 69F80826 Copy CRC 69F80826 Accurately ripped (confidence 5) [325EE202] (AR v1) Copy OK
Track 5
Filename D:\Downloads\VA - Les Trésors Du Jazz 1898-1943 2002 Flac\Cd04 - 1929-1935\05 Duke Ellington - Creole Rhapsody.wav
Pre-gap length 0:00:03.60
Peak level 83.5 % Extraction speed 5.4 X Track quality 100.0 % Test CRC 9FB4406D Copy CRC 9FB4406D Accurately ripped (confidence 5) [4D25C7EF] (AR v1) Copy OK
Track 6
Filename D:\Downloads\VA - Les Trésors Du Jazz 1898-1943 2002 Flac\Cd04 - 1929-1935\06 Don Redman - Shakin' The African.wav
Pre-gap length 0:00:03.60
Peak level 91.6 % Extraction speed 5.2 X Track quality 100.0 % Test CRC CC7EC262 Copy CRC CC7EC262 Accurately ripped (confidence 5) [CAA46DCA] (AR v1) Copy OK
Track 7
Filename D:\Downloads\VA - Les Trésors Du Jazz 1898-1943 2002 Flac\Cd04 - 1929-1935\07 Duke Ellington - Lots O' Fingers.wav
Pre-gap length 0:00:03.60
Peak level 92.3 % Extraction speed 5.1 X Track quality 100.0 % Test CRC 8C2BA5D9 Copy CRC 8C2BA5D9 Accurately ripped (confidence 5) [17949055] (AR v1) Copy OK
Track 8
Filename D:\Downloads\VA - Les Trésors Du Jazz 1898-1943 2002 Flac\Cd04 - 1929-1935\08 Cab Calloway - Minnie The Moocher.wav
Pre-gap length 0:00:03.60
Peak level 93.7 % Extraction speed 5.7 X Track quality 100.0 % Test CRC FAC1F02C Copy CRC FAC1F02C Accurately ripped (confidence 5) [7103D88A] (AR v1) Copy OK
Track 9
Filename D:\Downloads\VA - Les Trésors Du Jazz 1898-1943 2002 Flac\Cd04 - 1929-1935\09 Sidney Bechet - Sweetie Dear.wav
Pre-gap length 0:00:03.60
Peak level 78.8 % Extraction speed 5.7 X Track quality 100.0 % Test CRC DA9CC3DF Copy CRC DA9CC3DF Accurately ripped (confidence 5) [C9D827E8] (AR v1) Copy OK
Track 10
Filename D:\Downloads\VA - Les Trésors Du Jazz 1898-1943 2002 Flac\Cd04 - 1929-1935\10 Sidney Bechet - Shag.wav
Pre-gap length 0:00:03.60
Peak level 100.0 % Extraction speed 6.0 X Track quality 100.0 % Test CRC 4D692822 Copy CRC 4D692822 Accurately ripped (confidence 5) [F1FA841E] (AR v1) Copy OK
Track 11
Filename D:\Downloads\VA - Les Trésors Du Jazz 1898-1943 2002 Flac\Cd04 - 1929-1935\11 Ethel Waters & Duke Ellington - I Can't Give You Anything But Love.wav
Pre-gap length 0:00:03.60
Peak level 100.0 % Extraction speed 6.1 X Track quality 100.0 % Test CRC DE43DFAD Copy CRC DE43DFAD Accurately ripped (confidence 5) [900171EA] (AR v1) Copy OK
Track 12
Filename D:\Downloads\VA - Les Trésors Du Jazz 1898-1943 2002 Flac\Cd04 - 1929-1935\12 Spike Hughes & His Negro Orchestra - Fanfare.wav
Pre-gap length 0:00:03.60
Peak level 97.1 % Extraction speed 6.2 X Track quality 100.0 % Test CRC DE5364A6 Copy CRC DE5364A6 Accurately ripped (confidence 5) [7FFD241F] (AR v1) Copy OK
Track 13
Filename D:\Downloads\VA - Les Trésors Du Jazz 1898-1943 2002 Flac\Cd04 - 1929-1935\13 Fletcher Henderson - Queer Notions.wav
Pre-gap length 0:00:03.60
Peak level 86.7 % Extraction speed 5.2 X Track quality 99.9 % Test CRC 3EDD76C5 Copy CRC 3EDD76C5 Accurately ripped (confidence 5) [1F533CDD] (AR v1) Copy OK
Track 14
Filename D:\Downloads\VA - Les Trésors Du Jazz 1898-1943 2002 Flac\Cd04 - 1929-1935\14 Bessie Smith - Gimme A Pigfoot.wav
Pre-gap length 0:00:03.60
Peak level 86.6 % Extraction speed 6.6 X Track quality 100.0 % Test CRC B157DABD Copy CRC B157DABD Accurately ripped (confidence 5) [F21C1476] (AR v1) Copy OK
Track 15
Filename D:\Downloads\VA - Les Trésors Du Jazz 1898-1943 2002 Flac\Cd04 - 1929-1935\15 Duke Ellington - Stompy Jones.wav
Pre-gap length 0:00:03.60
Peak level 83.5 % Extraction speed 6.7 X Track quality 100.0 % Test CRC 42BE1899 Copy CRC 42BE1899 Accurately ripped (confidence 5) [7CAA8473] (AR v1) Copy OK
Track 16
Filename D:\Downloads\VA - Les Trésors Du Jazz 1898-1943 2002 Flac\Cd04 - 1929-1935\16 Duke Ellington - Solitude.wav
Pre-gap length 0:00:03.60
Peak level 83.5 % Extraction speed 7.0 X Track quality 100.0 % Test CRC 9A7A0B77 Copy CRC 9A7A0B77 Accurately ripped (confidence 5) [CD352486] (AR v1) Copy OK
Track 17
Filename D:\Downloads\VA - Les Trésors Du Jazz 1898-1943 2002 Flac\Cd04 - 1929-1935\17 Teddy Wilson - Somebody Loves Me.wav
Pre-gap length 0:00:03.60
Peak level 81.6 % Extraction speed 7.0 X Track quality 100.0 % Test CRC A614A6FD Copy CRC A614A6FD Accurately ripped (confidence 5) [42362DAB] (AR v1) Copy OK
Track 18
Filename D:\Downloads\VA - Les Trésors Du Jazz 1898-1943 2002 Flac\Cd04 - 1929-1935\18 Art Tatum - Moonglow.wav
Pre-gap length 0:00:03.60
Peak level 83.5 % Extraction speed 6.9 X Track quality 100.0 % Test CRC 926573F6 Copy CRC 926573F6 Accurately ripped (confidence 5) [E1E924A0] (AR v1) Copy OK
Track 19
Filename D:\Downloads\VA - Les Trésors Du Jazz 1898-1943 2002 Flac\Cd04 - 1929-1935\19 Fletcher Henderson - Shangai Shuffle.wav
Pre-gap length 0:00:03.60
Peak level 83.5 % Extraction speed 7.3 X Track quality 100.0 % Test CRC ECCA6D84 Copy CRC ECCA6D84 Accurately ripped (confidence 5) [C5719BAF] (AR v1) Copy OK
Track 20
Filename D:\Downloads\VA - Les Trésors Du Jazz 1898-1943 2002 Flac\Cd04 - 1929-1935\20 Spirits Of Rhythm - Shoutin' In That Amen Corner.wav
Pre-gap length 0:00:03.60
Peak level 83.7 % Extraction speed 7.3 X Track quality 100.0 % Test CRC 3460E1E7 Copy CRC 3460E1E7 Accurately ripped (confidence 5) [48E95258] (AR v1) Copy OK
Track 21
Filename D:\Downloads\VA - Les Trésors Du Jazz 1898-1943 2002 Flac\Cd04 - 1929-1935\21 Fats Waller - Viper's Drag.wav
Pre-gap length 0:00:03.60
Peak level 83.5 % Extraction speed 6.4 X Track quality 99.9 % Test CRC 6BFEA396 Copy CRC 6BFEA396 Accurately ripped (confidence 5) [9C36A498] (AR v1) Copy OK
Track 22
Filename D:\Downloads\VA - Les Trésors Du Jazz 1898-1943 2002 Flac\Cd04 - 1929-1935\22 Teddy Hill - Here Comes Cookie.wav
Pre-gap length 0:00:03.60
Peak level 63.8 % Extraction speed 7.6 X Track quality 100.0 % Test CRC 219B126E Copy CRC 219B126E Accurately ripped (confidence 5) [297ADCAF] (AR v1) Copy OK
Track 23
Filename D:\Downloads\VA - Les Trésors Du Jazz 1898-1943 2002 Flac\Cd04 - 1929-1935\23 Willie Bryant - The Sheik Of Araby.wav
Pre-gap length 0:00:03.60
Peak level 69.7 % Extraction speed 6.6 X Track quality 99.9 % Test CRC DC47F5BA Copy CRC DC47F5BA Accurately ripped (confidence 5) [6223A70B] (AR v1) Copy OK
All tracks accurately ripped
No errors occurred
End of status report
---- CUETools DB Plugin V2.1.3
[CTDB TOCID: Sa6d3_r3zbopiQvYqQTTsjTAC48-] found, Submit result: Sa6d3_r3zbopiQvYqQTTsjTAC48- has been confirmed[172161b1] (1/1) Accurately ripped
==== Log checksum BE015747175C54D64A539518D014B62F6E7C425D7C941324B43D7E1E99ACC60E ====

.cue

REM GENRE JazzREM DATE 2002REM DISCID 43116E17REM COMMENT "ExactAudioCopy v1.0b3"FILE "01 - Jones & Collins Astoria Hot Eight - Duet Stomp.wav" WAVE TRACK 01 AUDIO TITLE "Duet Stomp" PERFORMER "Jones & Collins Astoria Hot 8" INDEX 01 00:00:00 TRACK 02 AUDIO TITLE "I’ve Found A New Baby" PERFORMER "James P. Johnson & Clarence Williams" INDEX 00 02:51:52FILE "02 - James P.Johnson & Clarence Williams - I've Found A New Baby.wav" WAVE INDEX 01 00:00:00 TRACK 03 AUDIO TITLE "Peg Of My Heart" PERFORMER "Red Nichols" INDEX 00 02:50:19FILE "03 - Red Nichols & His Five Pennies - Peg Of My Heart.wav" WAVE INDEX 01 00:00:00 TRACK 04 AUDIO TITLE "Blue Yodel N9" PERFORMER "Jimmie Rodgers" INDEX 00 03:09:19FILE "04 -Jimmie Rodgers - Blue Yodel N9.wav" WAVE INDEX 01 00:00:00 TRACK 05 AUDIO TITLE "Creole Rhapsody" PERFORMER "Duke Ellington" INDEX 00 02:39:32FILE "05 - Duke Ellington - Creole Rhapsody.wav" WAVE INDEX 01 00:00:00 TRACK 06 AUDIO TITLE "Shakin' The African" PERFORMER "Don Redman" INDEX 00 08:22:65FILE "06 - Don Redman - Shakin' The African.wav" WAVE INDEX 01 00:00:00 TRACK 07 AUDIO TITLE "Lots Of Fingers" PERFORMER "Duke Ellington" INDEX 00 02:38:14FILE "07 - Duke Ellington - Lots O' Fingers.wav" WAVE INDEX 01 00:00:00 TRACK 08 AUDIO TITLE "Minnie The Moocher" PERFORMER "Cab Calloway" INDEX 00 02:11:67FILE "08 - Cab Calloway - Minnie The Moocher.wav" WAVE INDEX 01 00:00:00 TRACK 09 AUDIO TITLE "Sweetie Dear" PERFORMER "Sidney Bechet" INDEX 00 03:32:61FILE "09 - Sidney Bechet - Sweetie Dear.wav" WAVE INDEX 01 00:00:00 TRACK 10 AUDIO TITLE "Shag" PERFORMER "Sidney Bechet" INDEX 00 02:47:33FILE "10 - Sidney Bechet - Shag.wav" WAVE INDEX 01 00:00:00 TRACK 11 AUDIO TITLE "I Can't Give You Anything But Love" PERFORMER "Ethel Waters & Duke Ellington" INDEX 00 03:05:35FILE "11 - Ethel Waters & Duke Ellington - I Can't Give You Anything But Love.wav" WAVE INDEX 01 00:00:00 TRACK 12 AUDIO TITLE "Fanfare" PERFORMER "Spike Hughes" INDEX 00 03:04:13FILE "12 - Spike Hughes & His Negro Orchestra - Fanfare.wav" WAVE INDEX 01 00:00:00 TRACK 13 AUDIO TITLE "Queer Notions" PERFORMER "Fletcher Henderson" INDEX 00 02:52:71FILE "13 - Fletcher Henderson - Queer Notions.wav" WAVE INDEX 01 00:00:00 TRACK 14 AUDIO TITLE "Gimme A Pigfoot" PERFORMER "Bessie Smith" INDEX 00 02:29:55FILE "14 - Bessie Smith - Gimme A Pigfoot.wav" WAVE INDEX 01 00:00:00 TRACK 15 AUDIO TITLE "Stompy Jones" PERFORMER "Duke Ellington" INDEX 00 03:27:45FILE "15 - Duke Ellington - Stompy Jones.wav" WAVE INDEX 01 00:00:00 TRACK 16 AUDIO TITLE "Solitude" PERFORMER "Duke Ellington" INDEX 00 03:01:60FILE "16 - Duke Ellington - Solitude.wav" WAVE INDEX 01 00:00:00 TRACK 17 AUDIO TITLE "Somebody Loves Me" PERFORMER "Teddy Wilson" INDEX 00 03:24:72FILE "17 - Teddy Wilson - Somebody Loves Me.wav" WAVE INDEX 01 00:00:00 TRACK 18 AUDIO TITLE "Moonglow" PERFORMER "Art Tatum" INDEX 00 03:03:69FILE "18 - Art Tatum - Moonglow.wav" WAVE INDEX 01 00:00:00 TRACK 19 AUDIO TITLE "Shanghai Shuffle" PERFORMER "Fletcher Henderson" INDEX 00 02:34:66FILE "19 - Fletcher Henderson - Shangai Shuffle.wav" WAVE INDEX 01 00:00:00 TRACK 20 AUDIO TITLE "Shoutin' In That Amen Corner" PERFORMER "The Spirits Of Rhythm" INDEX 00 03:06:29FILE "20 - Spirits Of Rhythm - Shoutin' In That Amen Corner.wav" WAVE INDEX 01 00:00:00 TRACK 21 AUDIO TITLE "Viper's Drag" PERFORMER "Fats Waller" INDEX 00 02:56:14FILE "21 - Fats Waller - Viper's Drag.wav" WAVE INDEX 01 00:00:00 TRACK 22 AUDIO TITLE "Here Comes Cookie" PERFORMER "Teddy Hill" INDEX 00 02:55:50FILE "22 - Teddy Hill - Here Comes Cookie.wav" WAVE INDEX 01 00:00:00 TRACK 23 AUDIO TITLE "The Sheik Of Araby" PERFORMER "Willie Bryant" INDEX 00 02:59:31FILE "23 - Willie Bryant - The Sheik Of Araby.wav" WAVE INDEX 01 00:00:00

CD 05 - 1935-1937


Продолжительность: 1:14:28
Трэклист:
01 - Clarence Williams - Lady Luck Blues (2:59)
02 - Louis Prima - Basin Street Blues (3:06)
03 - Benny Goodman - Blue Skies (3:33)
04 - Teddy Wilson - What A Little Moonlight Can Do (3:02)
05 - Paul Whiteman - Dark Town Strutter's Ball (2:51)
06 - Benny Goodman - After You've Gone (2:50)
07 - Django Reinhardt - Djangology (2:58)
08 - Duke Ellington - Echoes Of Harlem (3:03)
09 - Gene Krupa And His All Star Swing Band - Swing Is Here (2:57)
10 - Stuff Smith And His Onyx Club Boys - After You've Gone (3:11)
11 - Django Reinhardt - Limehouse Blues (2:47)
12 - Duke Ellington - In A Jam (2:59)
13 - Henry ''Red'' Allen - When Did You Leave Heaven (3:06)
14 - Django Reinhardt - Sweet Chorus (2:45)
15 - Jones & Smith Inc. - Evenin' (2:57)
16 - Roy Elridge - Wabash Stomp (3:11)
17 - Lionel Hampton - Jivin' The Vibes (2:22)
18 - Meade Lux Lewis - Honky Tonk Train Blues (3:01)
19 - Lionel Hampton - Buzzin' Around With The Bee (3:07)
20 - Lionel Hampton - Chinatown (2:49)
21 - Coleman Hawkins - Crazy Rhythm (3:03)
22 - Teddy Hill And His NBC Orchestra - King Porter Stomp (3:07)
23 - Jam Session At Victor - Blues (3:01)
24 - Jam Session At Victor - Honeysuckle Rose (3:08)
25 - Robert Johnson - Hellhound On My Trail (2:35)

log

Exact Audio Copy V1.0 beta 3 from 29. August 2011
EAC extraction logfile from 28. March 2012, 15:37
VA / Les Trésors Du Jazz 1898-1943 - Cd05 - 1935-1937
Used drive : LITE-ON CD-RW SOHR-5238S Adapter: 1 ID: 0
Read mode : SecureUtilize accurate stream : YesDefeat audio cache : YesMake use of C2 pointers : No
Read offset correction : 6Overread into Lead-In and Lead-Out : NoFill up missing offset samples with silence : YesDelete leading and trailing silent blocks : NoNull samples used in CRC calculations : YesUsed interface : Native Win32 interface for Win NT & 2000Gap handling : Appended to previous track
Used output format : User Defined EncoderSelected bitrate : 1024 kBit/sQuality : HighAdd ID3 tag : NoCommand line compressor : C:\Program Files\Exact Audio Copy\Flac\flac.exeAdditional command line options : -8 -V -T "ARTIST=%artist%" -T "TITLE=%title%" -T "ALBUM=%albumtitle%" -T "DATE=%year%" -T "TRACKNUMBER=%tracknr%" -T "GENRE=%genre%" -T "PERFORMER=%albuminterpret%" -T "COMPOSER=%composer%" %haslyrics%--tag-from-file=LYRICS="%lyricsfile%"%haslyrics% -T "ALBUMARTIST=%albumartist%" -T "ALBUM ARTIST=%albumartist%" -T "DISCNUMBER=%cdnumber%" -T "TOTALDISCS=%totalcds%" -T "TOTALTRACKS=%numtracks%" -T "COMMENT=EAC V1.0 beta 2, Secure Mode, Test & Copy, AccurateRip, FLAC -8" %source% -o %dest%
TOC of the extracted CD
Track | Start | Length | Start sector | End sector --------------------------------------------------------- 1 | 0:00.00 | 2:58.49 | 0 | 13398 2 | 2:58.49 | 3:05.71 | 13399 | 27344 3 | 6:04.45 | 3:32.74 | 27345 | 43318 4 | 9:37.44 | 3:01.43 | 43319 | 56936 5 | 12:39.12 | 2:50.40 | 56937 | 69726 6 | 15:29.52 | 2:49.38 | 69727 | 82439 7 | 18:19.15 | 2:57.40 | 82440 | 95754 8 | 21:16.55 | 3:03.20 | 95755 | 109499 9 | 24:20.00 | 2:56.61 | 109500 | 122760 10 | 27:16.61 | 3:10.68 | 122761 | 137078 11 | 30:27.54 | 2:47.31 | 137079 | 149634 12 | 33:15.10 | 2:59.29 | 149635 | 163088 13 | 36:14.39 | 3:06.18 | 163089 | 177056 14 | 39:20.57 | 2:45.24 | 177057 | 189455 15 | 42:06.06 | 2:57.11 | 189456 | 202741 16 | 45:03.17 | 3:11.04 | 202742 | 217070 17 | 48:14.21 | 2:22.13 | 217071 | 227733 18 | 50:36.34 | 3:01.06 | 227734 | 241314 19 | 53:37.40 | 3:06.55 | 241315 | 255319 20 | 56:44.20 | 2:49.05 | 255320 | 267999 21 | 59:33.25 | 3:03.13 | 268000 | 281737 22 | 62:36.38 | 3:06.67 | 281738 | 295754 23 | 65:43.30 | 3:01.12 | 295755 | 309341 24 | 68:44.42 | 3:08.36 | 309342 | 323477 25 | 71:53.03 | 2:35.17 | 323478 | 335119
Track 1
Filename D:\Downloads\VA - Les Trésors Du Jazz 1898-1943 2002 Flac\Cd05 - 1935-1937\01 Clarence Williams - Lady Luck Blues.wav
Pre-gap length 0:00:02.00
Peak level 80.8 % Extraction speed 2.0 X Track quality 100.0 % Test CRC E831A1D6 Copy CRC E831A1D6 Accurately ripped (confidence 5) [64C99402] (AR v1) Copy OK
Track 2
Filename D:\Downloads\VA - Les Trésors Du Jazz 1898-1943 2002 Flac\Cd05 - 1935-1937\02 Louis Prima - Basin Street Blues.wav
Pre-gap length 0:00:03.60
Peak level 87.5 % Extraction speed 2.1 X Track quality 100.0 % Test CRC 8B60CE69 Copy CRC 8B60CE69 Accurately ripped (confidence 5) [9303EA83] (AR v1) Copy OK
Track 3
Filename D:\Downloads\VA - Les Trésors Du Jazz 1898-1943 2002 Flac\Cd05 - 1935-1937\03 Benny Goodman - Blue Skies.wav
Pre-gap length 0:00:03.60
Peak level 93.0 % Extraction speed 2.1 X Track quality 100.0 % Test CRC 0DA4001F Copy CRC 0DA4001F Accurately ripped (confidence 5) [7FFCD45F] (AR v1) Copy OK
Track 4
Filename D:\Downloads\VA - Les Trésors Du Jazz 1898-1943 2002 Flac\Cd05 - 1935-1937\04 Teddy Wilson - What A Little Moonlight Can Do.wav
Pre-gap length 0:00:03.60
Peak level 78.3 % Extraction speed 1.8 X Track quality 99.9 % Test CRC 160469B4 Copy CRC 160469B4 Accurately ripped (confidence 5) [A6648AAA] (AR v1) Copy OK
Track 5
Filename D:\Downloads\VA - Les Trésors Du Jazz 1898-1943 2002 Flac\Cd05 - 1935-1937\05 Paul Whiteman - Dark Town Strutter's Ball.wav
Pre-gap length 0:00:03.60
Peak level 72.3 % Extraction speed 2.1 X Track quality 100.0 % Test CRC 2435D3F6 Copy CRC 2435D3F6 Accurately ripped (confidence 5) [1BB618F9] (AR v1) Copy OK
Track 6
Filename D:\Downloads\VA - Les Trésors Du Jazz 1898-1943 2002 Flac\Cd05 - 1935-1937\06 Benny Goodman - After You've Gone.wav
Pre-gap length 0:00:03.60
Peak level 87.8 % Extraction speed 2.1 X Track quality 100.0 % Test CRC 36D313FB Copy CRC 36D313FB Accurately ripped (confidence 5) [C7119A56] (AR v1) Copy OK
Track 7
Filename D:\Downloads\VA - Les Trésors Du Jazz 1898-1943 2002 Flac\Cd05 - 1935-1937\07 Django Reinhardt - Djangology.wav
Pre-gap length 0:00:03.60
Peak level 87.8 % Extraction speed 2.1 X Track quality 100.0 % Test CRC 9030BC8A Copy CRC 9030BC8A Accurately ripped (confidence 5) [D66E4074] (AR v1) Copy OK
Track 8
Filename D:\Downloads\VA - Les Trésors Du Jazz 1898-1943 2002 Flac\Cd05 - 1935-1937\08 Duke Ellington - Echoes Of Harlem.wav
Pre-gap length 0:00:03.60
Peak level 85.8 % Extraction speed 1.8 X Track quality 99.9 % Test CRC 1E1523C2 Copy CRC 1E1523C2 Accurately ripped (confidence 5) [8C57F6D2] (AR v1) Copy OK
Track 9
Filename D:\Downloads\VA - Les Trésors Du Jazz 1898-1943 2002 Flac\Cd05 - 1935-1937\09 Gene Krupa And His All Star Swing Band - Swing Is Here.wav
Pre-gap length 0:00:03.60
Peak level 79.8 % Extraction speed 2.1 X Track quality 100.0 % Test CRC 0D30C77D Copy CRC 0D30C77D Accurately ripped (confidence 5) [6BB592C2] (AR v1) Copy OK
Track 10
Filename D:\Downloads\VA - Les Trésors Du Jazz 1898-1943 2002 Flac\Cd05 - 1935-1937\10 Stuff Smith And His Onyx Club Boys - After You've Gone.wav
Pre-gap length 0:00:03.60
Peak level 73.6 % Extraction speed 1.8 X Track quality 99.9 % Test CRC A1F90FEC Copy CRC A1F90FEC Accurately ripped (confidence 5) [D66390BC] (AR v1) Copy OK
Track 11
Filename D:\Downloads\VA - Les Trésors Du Jazz 1898-1943 2002 Flac\Cd05 - 1935-1937\11 Django Reinhardt - Limehouse Blues.wav
Pre-gap length 0:00:03.60
Peak level 64.2 % Extraction speed 2.0 X Track quality 100.0 % Test CRC 97A154EB Copy CRC 97A154EB Accurately ripped (confidence 5) [5C43CC4E] (AR v1) Copy OK
Track 12
Filename D:\Downloads\VA - Les Trésors Du Jazz 1898-1943 2002 Flac\Cd05 - 1935-1937\12 Duke Ellington - In A Jam.wav
Pre-gap length 0:00:03.60
Peak level 83.9 % Extraction speed 2.1 X Track quality 100.0 % Test CRC E1BB275D Copy CRC E1BB275D Accurately ripped (confidence 5) [5F462E57] (AR v1) Copy OK
Track 13
Filename D:\Downloads\VA - Les Trésors Du Jazz 1898-1943 2002 Flac\Cd05 - 1935-1937\13 Henry ''Red'' Allen - When Did You Leave Heaven.wav
Pre-gap length 0:00:03.60
Peak level 80.5 % Extraction speed 1.8 X Track quality 99.9 % Test CRC DC522E9C Copy CRC DC522E9C Accurately ripped (confidence 5) [7E9CE7D7] (AR v1) Copy OK
Track 14
Filename D:\Downloads\VA - Les Trésors Du Jazz 1898-1943 2002 Flac\Cd05 - 1935-1937\14 Django Reinhardt - Sweet Chorus.wav
Pre-gap length 0:00:03.60
Peak level 87.8 % Extraction speed 1.7 X Track quality 99.9 % Test CRC F5A2A800 Copy CRC F5A2A800 Accurately ripped (confidence 5) [B3C810D0] (AR v1) Copy OK
Track 15
Filename D:\Downloads\VA - Les Trésors Du Jazz 1898-1943 2002 Flac\Cd05 - 1935-1937\15 Jones & Smith Inc. - Evenin'.wav
Pre-gap length 0:00:03.60
Peak level 74.3 % Extraction speed 2.1 X Track quality 100.0 % Test CRC F647DE93 Copy CRC F647DE93 Accurately ripped (confidence 5) [0C31FD6E] (AR v1) Copy OK
Track 16
Filename D:\Downloads\VA - Les Trésors Du Jazz 1898-1943 2002 Flac\Cd05 - 1935-1937\16 Roy Elridge - Wabash Stomp.wav
Pre-gap length 0:00:03.60
Peak level 82.9 % Extraction speed 2.1 X Track quality 100.0 % Test CRC 5A85D89D Copy CRC 5A85D89D Accurately ripped (confidence 5) [1CCA5C1C] (AR v1) Copy OK
Track 17
Filename D:\Downloads\VA - Les Trésors Du Jazz 1898-1943 2002 Flac\Cd05 - 1935-1937\17 Lionel Hampton - Jivin' The Vibes.wav
Pre-gap length 0:00:03.60
Peak level 87.8 % Extraction speed 2.0 X Track quality 100.0 % Test CRC 8BF1EDE1 Copy CRC 8BF1EDE1 Accurately ripped (confidence 5) [473518F1] (AR v1) Copy OK
Track 18
Filename D:\Downloads\VA - Les Trésors Du Jazz 1898-1943 2002 Flac\Cd05 - 1935-1937\18 Meade Lux Lewis - Honky Tonk Train Blues.wav
Pre-gap length 0:00:03.60
Peak level 78.3 % Extraction speed 2.1 X Track quality 100.0 % Test CRC 4B930A02 Copy CRC 4B930A02 Accurately ripped (confidence 5) [33058CB0] (AR v1) Copy OK
Track 19
Filename D:\Downloads\VA - Les Trésors Du Jazz 1898-1943 2002 Flac\Cd05 - 1935-1937\19 Lionel Hampton - Buzzin' Around With The Bee.wav
Pre-gap length 0:00:03.60
Peak level 78.3 % Extraction speed 2.1 X Track quality 100.0 % Test CRC 86DEA352 Copy CRC 86DEA352 Accurately ripped (confidence 5) [2A769879] (AR v1) Copy OK
Track 20
Filename D:\Downloads\VA - Les Trésors Du Jazz 1898-1943 2002 Flac\Cd05 - 1935-1937\20 Lionel Hampton - Chinatown.wav
Pre-gap length 0:00:03.60
Peak level 69.8 % Extraction speed 2.0 X Track quality 100.0 % Test CRC BA8FC641 Copy CRC BA8FC641 Accurately ripped (confidence 5) [3582A1AB] (AR v1) Copy OK
Track 21
Filename D:\Downloads\VA - Les Trésors Du Jazz 1898-1943 2002 Flac\Cd05 - 1935-1937\21 Coleman Hawkins - Crazy Rhythm.wav
Pre-gap length 0:00:03.60
Peak level 85.8 % Extraction speed 2.1 X Track quality 100.0 % Test CRC 48691024 Copy CRC 48691024 Accurately ripped (confidence 5) [312D6D0E] (AR v1) Copy OK
Track 22
Filename D:\Downloads\VA - Les Trésors Du Jazz 1898-1943 2002 Flac\Cd05 - 1935-1937\22 Teddy Hill And His NBC Orchestra - King Porter Stomp.wav
Pre-gap length 0:00:03.60
Peak level 76.6 % Extraction speed 1.8 X Track quality 99.9 % Test CRC 8BE0AAD6 Copy CRC 8BE0AAD6 Accurately ripped (confidence 5) [3B3C37C3] (AR v1) Copy OK
Track 23
Filename D:\Downloads\VA - Les Trésors Du Jazz 1898-1943 2002 Flac\Cd05 - 1935-1937\23 Jam Session At Victor - Blues.wav
Pre-gap length 0:00:03.60
Peak level 93.7 % Extraction speed 2.1 X Track quality 100.0 % Test CRC 340ED02F Copy CRC 340ED02F Accurately ripped (confidence 5) [5CFF7E72] (AR v1) Copy OK
Track 24
Filename D:\Downloads\VA - Les Trésors Du Jazz 1898-1943 2002 Flac\Cd05 - 1935-1937\24 Jam Session At Victor - Honeysuckle Rose.wav
Pre-gap length 0:00:03.60
Peak level 86.0 % Extraction speed 2.1 X Track quality 100.0 % Test CRC A78B4430 Copy CRC A78B4430 Accurately ripped (confidence 5) [465B643B] (AR v1) Copy OK
Track 25
Filename D:\Downloads\VA - Les Trésors Du Jazz 1898-1943 2002 Flac\Cd05 - 1935-1937\25 Robert Johnson - Hellhound On My Trail.wav
Pre-gap length 0:00:03.60
Peak level 66.6 % Extraction speed 2.0 X Track quality 100.0 % Test CRC 0F0A459F Copy CRC 0F0A459F Accurately ripped (confidence 5) [FCD9A136] (AR v1) Copy OK
All tracks accurately ripped
No errors occurred
End of status report
---- CUETools DB Plugin V2.1.3
[CTDB TOCID: .9CqI0B_wa1sFItZoTFXE5qv8Lk-] found, Submit result: .9CqI0B_wa1sFItZoTFXE5qv8Lk- has been confirmed[ef9606e3] (1/1) Accurately ripped
==== Log checksum DAF002EAF22BE72AD1DE188013CE001BFFEB4B1B254C50202B6A28CC57F6758A ====

.cue

REM GENRE JazzREM DATE 2002REM DISCID 86117419REM COMMENT "ExactAudioCopy v1.0b3"FILE "01 - Clarence Williams - Lady Luck Blues.wav" WAVE TRACK 01 AUDIO TITLE "Lady Luck Blues" PERFORMER "Clarence Williams" INDEX 01 00:00:00 TRACK 02 AUDIO TITLE "Basin Street Blues" PERFORMER "Louis Prima" INDEX 00 02:55:04FILE "02 - Louis Prima - Basin Street Blues.wav" WAVE INDEX 01 00:00:00 TRACK 03 AUDIO TITLE "Blue Skies" PERFORMER "Benny Goodman" INDEX 00 03:02:26FILE "03 - Benny Goodman - Blue Skies.wav" WAVE INDEX 01 00:00:00 TRACK 04 AUDIO TITLE "What A Little Moonlight Can Do" PERFORMER "Teddy Wilson" INDEX 00 03:29:29FILE "04 - Teddy Wilson - What A Little Moonlight Can Do.wav" WAVE INDEX 01 00:00:00 TRACK 05 AUDIO TITLE "Dark Town Strutter's Ball" PERFORMER "Paul Whiteman" INDEX 00 02:57:73FILE "05 - Paul Whiteman - Dark Town Strutter's Ball.wav" WAVE INDEX 01 00:00:00 TRACK 06 AUDIO TITLE "After You've Gone" PERFORMER "Benny Goodman" INDEX 00 02:46:70FILE "06 - Benny Goodman - After You've Gone.wav" WAVE INDEX 01 00:00:00 TRACK 07 AUDIO TITLE "Djangology" PERFORMER "Django Reinhardt" INDEX 00 02:45:68FILE "07 - Django Reinhardt - Djangology.wav" WAVE INDEX 01 00:00:00 TRACK 08 AUDIO TITLE "Echoes Of Harlem" PERFORMER "Duke Ellington" INDEX 00 02:53:70FILE "08 - Duke Ellington - Echoes Of Harlem.wav" WAVE INDEX 01 00:00:00 TRACK 09 AUDIO TITLE "Swing Is Here" PERFORMER "Gene Krupa" INDEX 00 02:59:50FILE "09 - Gene Krupa And His All Star Swing Band - Swing Is Here.wav" WAVE INDEX 01 00:00:00 TRACK 10 AUDIO TITLE "After You've Gone" PERFORMER "Stuff Smith" INDEX 00 02:53:16FILE "10 - Stuff Smith And His Onyx Club Boys - After You've Gone.wav" WAVE INDEX 01 00:00:00 TRACK 11 AUDIO TITLE "Limehouse Blues" PERFORMER "Django Reinhardt" INDEX 00 03:07:23FILE "11 - Django Reinhardt - Limehouse Blues.wav" WAVE INDEX 01 00:00:00 TRACK 12 AUDIO TITLE "In A Jam" PERFORMER "Duke Ellington" INDEX 00 02:43:61FILE "12 - Duke Ellington - In A Jam.wav" WAVE INDEX 01 00:00:00 TRACK 13 AUDIO TITLE "When Did You Leave Heaven" PERFORMER "Henry ''Red'' Allen" INDEX 00 02:55:59FILE "13 - Henry ''Red'' Allen - When Did You Leave Heaven.wav" WAVE INDEX 01 00:00:00 TRACK 14 AUDIO TITLE "Sweet Chorus" PERFORMER "Django Reinhardt" INDEX 00 03:02:48FILE "14 - Django Reinhardt - Sweet Chorus.wav" WAVE INDEX 01 00:00:00 TRACK 15 AUDIO TITLE "Evenin'" PERFORMER "Jones & Smith Inc." INDEX 00 02:41:54FILE "15 - Jones & Smith Inc. - Evenin'.wav" WAVE INDEX 01 00:00:00 TRACK 16 AUDIO TITLE "Wabash Stomp" PERFORMER "Roy Eldridge" INDEX 00 02:53:41FILE "16 - Roy Elridge - Wabash Stomp.wav" WAVE INDEX 01 00:00:00 TRACK 17 AUDIO TITLE "Jivin' the Vibes" PERFORMER "Lionel Hampton" INDEX 00 03:07:34FILE "17 - Lionel Hampton - Jivin' The Vibes.wav" WAVE INDEX 01 00:00:00 TRACK 18 AUDIO TITLE "Honky Tonk Train Blues" PERFORMER "Meade Lux Lewis" INDEX 00 02:18:43FILE "18 - Meade Lux Lewis - Honky Tonk Train Blues.wav" WAVE INDEX 01 00:00:00 TRACK 19 AUDIO TITLE "Buzzin' Around With the Bee" PERFORMER "Lionel Hampton" INDEX 00 02:57:36FILE "19 - Lionel Hampton - Buzzin' Around With The Bee.wav" WAVE INDEX 01 00:00:00 TRACK 20 AUDIO TITLE "Chinatown" PERFORMER "Lionel Hampton" INDEX 00 03:03:10FILE "20 - Lionel Hampton - Chinatown.wav" WAVE INDEX 01 00:00:00 TRACK 21 AUDIO TITLE "Crazy Rhythm" PERFORMER "Coleman Hawkins" INDEX 00 02:45:35FILE "21 - Coleman Hawkins - Crazy Rhythm.wav" WAVE INDEX 01 00:00:00 TRACK 22 AUDIO TITLE "King Porter Stomp" PERFORMER "Teddy Hill and His NBC Orchestra" INDEX 00 02:59:43FILE "22 - Teddy Hill And His NBC Orchestra - King Porter Stomp.wav" WAVE INDEX 01 00:00:00 TRACK 23 AUDIO TITLE "Blues" PERFORMER "Jam Session At Victor" INDEX 00 03:03:22FILE "23 - Jam Session At Victor - Blues.wav" WAVE INDEX 01 00:00:00 TRACK 24 AUDIO TITLE "Honeysuckle Rose" PERFORMER "Jam Session At Victor" INDEX 00 02:57:42FILE "24 - Jam Session At Victor - Honeysuckle Rose.wav" WAVE INDEX 01 00:00:00 TRACK 25 AUDIO TITLE "Hellhound On My Trail" PERFORMER "Robert Johnson" INDEX 00 03:04:66FILE "25 - Robert Johnson - Hellhound On My Trail.wav" WAVE INDEX 01 00:00:00
[ru-zerkalo.org]_t_5683357
Torrent: Registered ·  [ 2019-03-04 15:53 ] ·  9df91035bdbc495cd544db1cbea80ba2c7bf3926

41 KB

Status: checked
Completed: 0 times
Size: 3.06 GB
Rating: 
(Votes: 0)
Say thanks: 0  Thanks
 
Похожие темы
[Profile] [PM]
Display posts from previous:    
Reply to topic

The time now is: Today 21:34

All times are GMT + 7 Hours



You cannot post new topics in this forum
You cannot reply to topics in this forum
You cannot edit your posts in this forum
You cannot delete your posts in this forum
You cannot vote in polls in this forum
You cannot attach files in this forum
You can download files in this forum