Register · 
Username: Password:
 ·  Forgot password?

[DTSCD][UP] Алексей Архиповский - Дорога домой - 2013 (NeoFolk)

Reply to topic
DL-List and Torrent activity [Update пиров]
Size:  877 MB   |    Registered:  8 months 29 days   |    Completed:  1 time

Seeder not seen: 1 month 4 days

 
   
 
 
 
Author Message

manic-manic ®

Gender:

Longevity: 6 years 2 months

Posts: 13804

Post 11-Mar-2019 18:55

[Quote]

Алексей Архиповский - Дорога домой DTS UPMix
Формат записи/Источник записи: [DTSCD][UP]
Наличие водяных знаков: Нет
Год издания/переиздания диска: 2013
Жанр: NeoFolk
Издатель (лейбл): OOO "ПО" ЕОД"
Продолжительность: 01:15:00
Наличие сканов в содержимом раздачи: Да (сканы)
Треклист:
1. Intro (14:02)
2. Vanya (4:06)
3. Beauty (8:56)
4. Insomnia (7:20)
5. Cheloveche (14:13)
6. Rain (8:54)
7. Road Home (5:21)
8. Eastern (5:14)
9. Cinderella (7:28)
Контейнер: WAV(*.wav)
Тип рипа: tracks
Разрядность: 16/44,1
Формат: DTS
Количество каналов: 5.1
Битрейт аудио: 1411 kbps

DR-лог

foobar2000 1.4.2 / Dynamic Range Meter 1.1.1log date: 2019-03-11 00:22:33
--------------------------------------------------------------------------------Analyzed: Алексей Архиповский / Дорога домой--------------------------------------------------------------------------------
DR Peak RMS Duration Track--------------------------------------------------------------------------------DR12 -1.00 dB -18.53 dB 14:03 01-IntroDR10 -1.19 dB -14.49 dB 4:06 02-VanyaDR19 -2.24 dB -30.41 dB 8:57 03-BeautyDR13 -1.19 dB -18.75 dB 7:21 04-InsomniaDR11 -1.29 dB -19.31 dB 14:13 05-ChelovecheDR19 -2.20 dB -32.91 dB 8:55 06-RainDR15 -1.34 dB -23.20 dB 5:21 07-Road HomeDR11 -0.20 dB -15.97 dB 5:14 08-EasternDR17 -2.82 dB -29.52 dB 7:28 09-Cinderella--------------------------------------------------------------------------------
Number of tracks: 9Official DR value: DR14
Samplerate: 44100 HzChannels: 6Bits per sample: 16Bitrate: 1411 kbpsCodec: DTS================================================================================
Источник (релизер): Основой послужила раздача
Доп. информация: DJ S.A.W. DTS Upmix
Метод получения апмикса:
ручное выделение фазо-частотных фрагментов фонограммы с помощью функции CCE Adobe Audition
мультиканальный мастеринг – Аdobe Audition (встроенными эффектами и плагинами Waves, iZotope,
Starplugs и т.п.)
[ru-zerkalo.org]_t_5702193
Torrent: Registered ·  [ 2019-03-11 18:53 ] ·  a575bdcd52141a9da29b88d9a0d6d1ff4973c2cb

19 KB

Status: checked
Completed: 1 times
Size: 877 MB
Rating: 
(Votes: 0)
Say thanks: 0  Thanks
 
Похожие темы
[Profile] [PM]
Display posts from previous:    
Reply to topic

The time now is: Today 02:28

All times are GMT + 7 Hours



You cannot post new topics in this forum
You cannot reply to topics in this forum
You cannot edit your posts in this forum
You cannot delete your posts in this forum
You cannot vote in polls in this forum
You cannot attach files in this forum
You can download files in this forum