Register · 
Username: Password:
 ·  Forgot password?

Чудо / The Miracle (Ирвинг Раппер / Irving Rapper, Гордон Дуглас / Gordon Douglas) [1959, США, драма, VHSRip] + VO (Andi999) + Sub Rus (Антон Каптелов) + Original Eng

Reply to topic
DL-List and Torrent activity [Update пиров]
Size:  871 MB   |    Registered:  10 months 20 days   |    Completed:  0 times

Seeder not seen: Never

 
   
 
 
 
Author Message

Andrew1225 ®

Gender:

Longevity: 6 years 4 months

Posts: 17668

Post 30-Mar-2019 22:20

[Quote]

Чудо / The Miracle
Страна: США
Жанр: драма
Год выпуска: 1959
Продолжительность: 02:01:43
Перевод: Одноголосый закадровый Andi999 по субтитрам: Антон Каптелов
Субтитры: русские
Оригинальная аудиодорожка: английский
Режиссер: Ирвинг Раппер / Irving Rapper, Гордон Дуглас / Gordon Douglas
В ролях: Кэррол Бейкер, Роджер Мур, Вальтер Слезак, Витторио Гассман, Катина Паксино, Деннис Кинг, Густаво Рохо, Изобел Элсом, Карлос Ривас, Торин Тэтчер
Описание: Испания времен наполеоновских войн. Английский офицер, капитан Стюарт, тяжело ранен в бою при Саламанке и попадает в монастырь, где о нем заботится послушница, сестра Тереза. Молодые люди влюбляются друг в друга и перед девушкой встает сложный выбор: служение Богу или любовь. За помощью она обращается к статуи Девы Марии и та совершает Чудо! Тереза покидает монастырь, а сама Богородица в ее облике остается служить в храме. Но, принесет ли счастье это Чудо главной героине и ее возлюбленному?
Сэмпл: http://sendfile.su/1483845
Качество видео: VHSRip
Формат видео: AVI
Видео: Xvid 432x320 29.97fps 675kbps
Аудио: Dolby AC3 48000Hz stereo 192kbps [A: Russian[rus/ru]
Аудио: MP3 48000Hz stereo 112kbps
Формат субтитров: softsub (SRT)

MediaInfo

GeneralComplete name : D:\Чудо - The Miracle 1959 [VO]\The Miracle 1959.aviFormat : AVIFormat/Info : Audio Video InterleaveFile size : 871 MiBDuration : 2 h 1 minOverall bit rate mode : VariableOverall bit rate : 1 000 kb/sWriting application : VirtualDubMod 1.5.10.3 (build 2550/release)Writing library : VirtualDubMod build 2550/release
VideoID : 0Format : MPEG-4 VisualFormat profile : Advanced Simple@L5Format settings : BVOP1 / Custom MatrixFormat settings, BVOP : 1Format settings, QPel : NoFormat settings, GMC : No warppointsFormat settings, Matrix : CustomCodec ID : XVIDCodec ID/Hint : XviDDuration : 2 h 1 minBit rate : 676 kb/sWidth : 432 pixelsHeight : 320 pixelsDisplay aspect ratio : 4:3Frame rate : 29.970 (30000/1001) FPSColor space : YUVChroma subsampling : 4:2:0Bit depth : 8 bitsScan type : ProgressiveCompression mode : LossyBits/(Pixel*Frame) : 0.163Stream size : 588 MiB (68%)Writing library : XviD 1.1.2 (UTC 2006-11-01)
Audio #1ID : 1Format : AC-3Format/Info : Audio Coding 3Codec ID : 2000Duration : 2 h 1 minBit rate mode : ConstantBit rate : 192 kb/sChannel(s) : 2 channelsChannel positions : Front: L RSampling rate : 48.0 kHzFrame rate : 31.250 FPS (1536 SPF)Bit depth : 16 bitsCompression mode : LossyStream size : 167 MiB (19%)Alignment : Split accross interleavesInterleave, duration : 33 ms (1.00 video frame)Interleave, preload duratio : 500 msTitle : Russian[rus/ru]Service kind : Complete Main
Audio #2ID : 2Format : MPEG AudioFormat version : Version 1Format profile : Layer 3Format settings : Joint stereoCodec ID : 55Codec ID/Hint : MP3Duration : 2 h 1 minBit rate mode : VariableBit rate : 112 kb/sNominal bit rate : 128 kb/sChannel(s) : 2 channelsSampling rate : 48.0 kHzFrame rate : 41.667 FPS (1152 SPF)Compression mode : LossyStream size : 97.8 MiB (11%)Alignment : Aligned on interleavesInterleave, duration : 24 ms (0.72 video frame)Interleave, preload duratio : 533 msTitle : English[eng/en]Writing library : LAME3.97bEncoding settings : -m j -V 4 -q 2 -lowpass 17 --abr 128

Скриншот c названием фильма

Скриншоты

Скриншоты с субтитрами

Пример субтитров

1
00:00:31,512 --> 00:00:35,304
ЧУДО
2
00:00:36,602 --> 00:00:39,024
в главных ролях:
Кэрролл БЭЙКЕР
3
00:00:40,468 --> 00:00:43,138
Роджер МУР
4
00:00:44,372 --> 00:00:47,018
Уолтер СЛЕЗАК
5
00:00:48,389 --> 00:00:51,103
Витторио ГАССМАН
6
00:00:51,955 --> 00:00:55,177
Катина ПАКСИНО
7
00:00:56,452 --> 00:00:59,169
Деннис КИНГ
8
00:01:00,533 --> 00:01:03,764
приглашенная звезда
Густаво РОХО
9
00:01:04,836 --> 00:01:11,366
в фильме также снимались:
Изобел ЭЛСОМ, Карлос РИВАС, Торин ТЕТЧЕР,
Эльспет МАРЧ, Дариа МЭССИ, Лестер МЭТТЬЮЗ
10
00:01:12,473 --> 00:01:18,783
сценарий Фрэнка БАТЛЕРА
по мотивам пьесы Карла ФОЛЛМЕЛЛЕРА,
поставленной на сцене Максом РЕЙНХАРДОМ
11
00:01:39,135 --> 00:01:42,328
оригинальная музыка
Эльмера БЕРНШТАЙНА
12
00:01:43,191 --> 00:01:46,323
продюсер
Генри БЛАНК
13
00:01:47,077 --> 00:01:49,984
режиссер
Ирвинг РАППЕР
14
00:01:51,094 --> 00:01:54,008
Больше века тому назад
победоносные войска Наполеона...
15
00:01:54,122 --> 00:01:56,792
...вторглись в Испанию.
16
00:01:56,887 --> 00:02:00,416
Только английская интервенция подарила
местным жителям надежду на спасение...
17
00:02:00,509 --> 00:02:03,594
...от полного разорения
их страны.
18
00:02:04,460 --> 00:02:06,442
В эти отчаянные времена...
19
00:02:06,520 --> 00:02:09,387
...родилась легенда
о Божественной Милости, которая дожила...
20
00:02:09,480 --> 00:02:14,727
... не потускнев от времени, до наших дней.
21
00:02:16,120 --> 00:02:22,433
Это началось в монастыре
долины Мирафлорес, недалеко
от Мадрида...
22
00:02:28,474 --> 00:02:29,596
Пахита!
23
00:02:29,659 --> 00:02:32,530
Фернандо, еще рано
благословлять животных.
24
00:02:33,130 --> 00:02:35,523
Но моя Пахита очень больна!
25
00:02:36,338 --> 00:02:39,722
Я хочу, чтобы священник
благословил ее. Или она умрет!
[ru-zerkalo.org]_t_5660685
Torrent: Registered ·  [ 2019-03-30 22:20 ] ·  ee45168806aa7c5f0c36fe17946040d4ed68445c

35 KB

Status: checked
Completed: 0 times
Size: 871 MB
Rating: 
(Votes: 0)
Say thanks: 0  Thanks
 
Похожие темы
[Profile] [PM]
Display posts from previous:    
Reply to topic

The time now is: Today 01:29

All times are GMT + 7 Hours



You cannot post new topics in this forum
You cannot reply to topics in this forum
You cannot edit your posts in this forum
You cannot delete your posts in this forum
You cannot vote in polls in this forum
You cannot attach files in this forum
You can download files in this forum