Register · 
Username: Password:
 ·  Forgot password?

(Funk, Soul) [CD] VA - More From The Other Side Of The Trax - 2017, FLAC (tracks+.cue), lossless

Reply to topic
DL-List and Torrent activity [Update пиров]
Size:  285 MB   |    Registered:  8 months 10 days   |    Completed:  0 times

Seeder not seen: Never

 
   
 
 
 
Author Message

ANTON1404 ®

Gender:

Longevity: 6 years 2 months

Posts: 18271

Post 01-Apr-2019 23:54

[Quote]

More From The Other Side Of The Trax
Жанр: Funk, Soul
Носитель: CD
Год издания: 2017
Издатель (лейбл): Kent Soul
Номер по каталогу: CDTOP 462
Аудиокодек: FLAC (*.flac)
Тип рипа: tracks+.cue
Битрейт аудио: lossless
Продолжительность: 60:22
Источник: red
Наличие сканов в содержимом раздачи: да
Треклист:
01. Barbara & The Browns - I Don't Want Trouble (2:04)
02. William Bell - What'cha Gonna Do (2:38)
03. Rufus Thomas - Fine And Mellow (2:58)
04. The Mar-Keys - Grab This Thing Pt 2 (2:19)
05. The Premiers - You Make A Strong Girl Weak (2:36)
06. Carla Thomas - The Puppet (2:42)
07. Rufus Thomas - All Night Worker (2:16)
08. Eddie Floyd - Good Love, Bad Love (2:16)
09. Barbara Stephens - I Don't Worry (2:22)
10. Carla & Rufus - Down Deep Inside (2:22)
11. William Bell - Don't Make Something Out Of Nothing (2:25)
12. The Mar-Keys - The Dribble (2:24)
13. Carla Thomas - It's Starting To Grow (2:49)
14. Rufus Thomas - Talkin' 'Bout True Love (2:42)
15. William Bell - One Plus One (2:40)
16. Rufus & Carla Thomas - Never Let You Go (2:45)
17. The Four Shells - Reputation (2:50)
18. Sir Mack Rice - Mini-Skirt Minnie (2:21)
19. Rufus Thomas - Greasy Spoon (2:35)
20. Carla Thomas - I Want You Back (2:32)
21. The Mar-Keys - The Shovel (2:31)
22. William Bell - I'm Waiting On You (2:37)
23. The Triumphs - Raw Dough (2:12)
24. Carla Thomas - Don't Let The Love Light Leave (2:27)

Лог создания рипа

Exact Audio Copy V1.3 from 2. September 2016
EAC extraction logfile from 9. June 2017, 22:48
Various Artists / More From The Other Side Of The Trax: Stax-Volt 45rpm Rarities 1960-1968
Used drive : TSSTcorpCDDVDW SH-224BB Adapter: 1 ID: 0
Read mode : SecureUtilize accurate stream : YesDefeat audio cache : YesMake use of C2 pointers : No
Read offset correction : 6Overread into Lead-In and Lead-Out : NoFill up missing offset samples with silence : YesDelete leading and trailing silent blocks : NoNull samples used in CRC calculations : YesUsed interface : Native Win32 interface for Win NT & 2000Gap handling : Appended to previous track
Used output format : User Defined EncoderSelected bitrate : 768 kBit/sQuality : HighAdd ID3 tag : NoCommand line compressor : C:\Program Files (x86)\Exact Audio Copy\Flac\flac.exeAdditional command line options : -8 -V -T "ARTIST=%artist%" -T "TITLE=%title%" -T "ALBUM=%albumtitle%" -T "DATE=%year%" -T "TRACKNUMBER=%tracknr%" -T "TOTALTRACKS=%numtracks%" -T "GENRE=%genre%" -T "ALBUMARTIST=%albumartist%" -T "ALBUM ARTIST=%albumartist%" -T "COMMENT=EAC Secure Mode, Test & Copy, AccurateRip, FLAC -8" %source%
TOC of the extracted CD
Track | Start | Length | Start sector | End sector --------------------------------------------------------- 1 | 0:00.00 | 2:04.14 | 0 | 9313 2 | 2:04.14 | 2:37.69 | 9314 | 21157 3 | 4:42.08 | 2:57.51 | 21158 | 34483 4 | 7:39.59 | 2:19.27 | 34484 | 44935 5 | 9:59.11 | 2:35.71 | 44936 | 56631 6 | 12:35.07 | 2:42.13 | 56632 | 68794 7 | 15:17.20 | 2:15.46 | 68795 | 78965 8 | 17:32.66 | 2:16.23 | 78966 | 89188 9 | 19:49.14 | 2:22.05 | 89189 | 99843 10 | 22:11.19 | 2:22.35 | 99844 | 110528 11 | 24:33.54 | 2:25.08 | 110529 | 121411 12 | 26:58.62 | 2:23.45 | 121412 | 132181 13 | 29:22.32 | 2:49.16 | 132182 | 144872 14 | 32:11.48 | 2:41.74 | 144873 | 157021 15 | 34:53.47 | 2:39.70 | 157022 | 169016 16 | 37:33.42 | 2:45.21 | 169017 | 181412 17 | 40:18.63 | 2:50.13 | 181413 | 194175 18 | 43:09.01 | 2:20.40 | 194176 | 204715 19 | 45:29.41 | 2:34.42 | 204716 | 216307 20 | 48:04.08 | 2:31.68 | 216308 | 227700 21 | 50:36.01 | 2:30.67 | 227701 | 239017 22 | 53:06.68 | 2:36.50 | 239018 | 250767 23 | 55:43.43 | 2:11.47 | 250768 | 260639 24 | 57:55.15 | 2:26.48 | 260640 | 271637
Track 1
Filename C:\Rips\Various Artists - More From The Other Side Of The Trax (2017) [FLAC]\01 - Barbara & The Browns - I Don't Want Trouble.wav
Pre-gap length 0:00:02.00
Peak level 95.5 % Extraction speed 1.2 X Track quality 99.9 % Test CRC F5F0E417 Copy CRC F5F0E417 Track not present in AccurateRip database Copy OK
Track 2
Filename C:\Rips\Various Artists - More From The Other Side Of The Trax (2017) [FLAC]\02 - William Bell - What'cha Gonna Do.wav
Pre-gap length 0:00:02.07
Peak level 95.5 % Extraction speed 1.6 X Track quality 100.0 % Test CRC CB788381 Copy CRC CB788381 Track not present in AccurateRip database Copy OK
Track 3
Filename C:\Rips\Various Artists - More From The Other Side Of The Trax (2017) [FLAC]\03 - Rufus Thomas - Fine And Mellow.wav
Pre-gap length 0:00:02.02
Peak level 95.5 % Extraction speed 1.7 X Track quality 100.0 % Test CRC 7832C83F Copy CRC 7832C83F Track not present in AccurateRip database Copy OK
Track 4
Filename C:\Rips\Various Artists - More From The Other Side Of The Trax (2017) [FLAC]\04 - The Mar-Keys - Grab This Thing Pt 2.wav
Pre-gap length 0:00:02.12
Peak level 95.5 % Extraction speed 1.8 X Track quality 100.0 % Test CRC 70880CD0 Copy CRC 70880CD0 Track not present in AccurateRip database Copy OK
Track 5
Filename C:\Rips\Various Artists - More From The Other Side Of The Trax (2017) [FLAC]\05 - The Premiers - You Make A Strong Girl Weak.wav
Pre-gap length 0:00:01.28
Peak level 85.3 % Extraction speed 1.9 X Track quality 100.0 % Test CRC 721B1632 Copy CRC 721B1632 Track not present in AccurateRip database Copy OK
Track 6
Filename C:\Rips\Various Artists - More From The Other Side Of The Trax (2017) [FLAC]\06 - Carla Thomas - The Puppet.wav
Pre-gap length 0:00:01.27
Peak level 94.2 % Extraction speed 2.0 X Track quality 100.0 % Test CRC BC9395CB Copy CRC BC9395CB Track not present in AccurateRip database Copy OK
Track 7
Filename C:\Rips\Various Artists - More From The Other Side Of The Trax (2017) [FLAC]\07 - Rufus Thomas - All Night Worker.wav
Pre-gap length 0:00:01.25
Peak level 95.5 % Extraction speed 2.1 X Track quality 100.0 % Test CRC 2C4E1862 Copy CRC 2C4E1862 Track not present in AccurateRip database Copy OK
Track 8
Filename C:\Rips\Various Artists - More From The Other Side Of The Trax (2017) [FLAC]\08 - Eddie Floyd - Good Love, Bad Love.wav
Pre-gap length 0:00:01.51
Peak level 95.5 % Extraction speed 2.1 X Track quality 100.0 % Test CRC 5D1BF6F3 Copy CRC 5D1BF6F3 Track not present in AccurateRip database Copy OK
Track 9
Filename C:\Rips\Various Artists - More From The Other Side Of The Trax (2017) [FLAC]\09 - Barbara Stephens - I Don't Worry.wav
Pre-gap length 0:00:02.27
Peak level 95.5 % Extraction speed 1.7 X Track quality 99.9 % Test CRC E67CF5BA Copy CRC E67CF5BA Track not present in AccurateRip database Copy OK
Track 10
Filename C:\Rips\Various Artists - More From The Other Side Of The Trax (2017) [FLAC]\10 - Carla & Rufus - Down Deep Inside.wav
Pre-gap length 0:00:01.69
Peak level 95.5 % Extraction speed 2.3 X Track quality 100.0 % Test CRC 533CF963 Copy CRC 533CF963 Track not present in AccurateRip database Copy OK
Track 11
Filename C:\Rips\Various Artists - More From The Other Side Of The Trax (2017) [FLAC]\11 - William Bell - Don't Make Something Out Of Nothing.wav
Pre-gap length 0:00:02.10
Peak level 95.5 % Extraction speed 1.7 X Track quality 99.9 % Test CRC BCFDE9D0 Copy CRC BCFDE9D0 Track not present in AccurateRip database Copy OK
Track 12
Filename C:\Rips\Various Artists - More From The Other Side Of The Trax (2017) [FLAC]\12 - The Mar-Keys - The Dribble.wav
Pre-gap length 0:00:01.63
Peak level 95.5 % Extraction speed 2.0 X Track quality 100.0 % Test CRC E40D7EFB Copy CRC E40D7EFB Track not present in AccurateRip database Copy OK
Track 13
Filename C:\Rips\Various Artists - More From The Other Side Of The Trax (2017) [FLAC]\13 - Carla Thomas - It's Starting To Grow.wav
Pre-gap length 0:00:02.30
Peak level 95.5 % Extraction speed 2.1 X Track quality 100.0 % Test CRC 958B2B3D Copy CRC 958B2B3D Track not present in AccurateRip database Copy OK
Track 14
Filename C:\Rips\Various Artists - More From The Other Side Of The Trax (2017) [FLAC]\14 - Rufus Thomas - Talkin' 'Bout True Love.wav
Pre-gap length 0:00:02.21
Peak level 95.5 % Extraction speed 1.5 X Track quality 99.9 % Test CRC 5E2BBBD6 Copy CRC 5E2BBBD6 Track not present in AccurateRip database Copy OK
Track 15
Filename C:\Rips\Various Artists - More From The Other Side Of The Trax (2017) [FLAC]\15 - William Bell - One Plus One.wav
Pre-gap length 0:00:02.13
Peak level 95.5 % Extraction speed 2.1 X Track quality 100.0 % Test CRC 2AB40FE6 Copy CRC 2AB40FE6 Track not present in AccurateRip database Copy OK
Track 16
Filename C:\Rips\Various Artists - More From The Other Side Of The Trax (2017) [FLAC]\16 - Rufus & Carla Thomas - Never Let You Go.wav
Pre-gap length 0:00:01.31
Peak level 95.5 % Extraction speed 2.1 X Track quality 100.0 % Test CRC 2062D3EB Copy CRC 2062D3EB Track not present in AccurateRip database Copy OK
Track 17
Filename C:\Rips\Various Artists - More From The Other Side Of The Trax (2017) [FLAC]\17 - The Four Shells - Reputation.wav
Pre-gap length 0:00:01.72
Peak level 95.2 % Extraction speed 2.3 X Track quality 100.0 % Test CRC F4BF2C15 Copy CRC F4BF2C15 Track not present in AccurateRip database Copy OK
Track 18
Filename C:\Rips\Various Artists - More From The Other Side Of The Trax (2017) [FLAC]\18 - Sir Mack Rice - Mini-Skirt Minnie.wav
Pre-gap length 0:00:01.69
Peak level 95.5 % Extraction speed 2.1 X Track quality 100.0 % Test CRC C0D0427B Copy CRC C0D0427B Track not present in AccurateRip database Copy OK
Track 19
Filename C:\Rips\Various Artists - More From The Other Side Of The Trax (2017) [FLAC]\19 - Rufus Thomas - Greasy Spoon.wav
Pre-gap length 0:00:01.22
Peak level 95.5 % Extraction speed 2.2 X Track quality 100.0 % Test CRC 07CFAF5D Copy CRC 07CFAF5D Track not present in AccurateRip database Copy OK
Track 20
Filename C:\Rips\Various Artists - More From The Other Side Of The Trax (2017) [FLAC]\20 - Carla Thomas - I Want You Back.wav
Pre-gap length 0:00:01.55
Peak level 95.5 % Extraction speed 2.4 X Track quality 100.0 % Test CRC 4CCED3C9 Copy CRC 4CCED3C9 Track not present in AccurateRip database Copy OK
Track 21
Filename C:\Rips\Various Artists - More From The Other Side Of The Trax (2017) [FLAC]\21 - The Mar-Keys - The Shovel.wav
Pre-gap length 0:00:01.49
Peak level 95.5 % Extraction speed 2.6 X Track quality 100.0 % Test CRC BCD1F374 Copy CRC BCD1F374 Track not present in AccurateRip database Copy OK
Track 22
Filename C:\Rips\Various Artists - More From The Other Side Of The Trax (2017) [FLAC]\22 - William Bell - I'm Waiting On You.wav
Pre-gap length 0:00:01.69
Peak level 95.5 % Extraction speed 1.8 X Track quality 99.9 % Test CRC 5A692B04 Copy CRC 5A692B04 Track not present in AccurateRip database Copy OK
Track 23
Filename C:\Rips\Various Artists - More From The Other Side Of The Trax (2017) [FLAC]\23 - The Triumphs - Raw Dough.wav
Pre-gap length 0:00:01.21
Peak level 95.5 % Extraction speed 2.6 X Track quality 100.0 % Test CRC 3A1D4367 Copy CRC 3A1D4367 Track not present in AccurateRip database Copy OK
Track 24
Filename C:\Rips\Various Artists - More From The Other Side Of The Trax (2017) [FLAC]\24 - Carla Thomas - Don't Let The Love Light Leave.wav
Pre-gap length 0:00:02.21
Peak level 95.5 % Extraction speed 2.4 X Track quality 100.0 % Test CRC A67412CD Copy CRC A67412CD Track not present in AccurateRip database Copy OK
None of the tracks are present in the AccurateRip database
No errors occurred
End of status report
---- CUETools DB Plugin V2.1.6
[CTDB TOCID: BxAaqVRaiR1ToR0EhVRN7XU6dPc-] foundSubmit result: BxAaqVRaiR1ToR0EhVRN7XU6dPc- has been confirmedTrack | CTDB Status 1 | (3/3) Accurately ripped 2 | (3/3) Accurately ripped 3 | (3/3) Accurately ripped 4 | (3/3) Accurately ripped 5 | (3/3) Accurately ripped 6 | (3/3) Accurately ripped 7 | (3/3) Accurately ripped 8 | (3/3) Accurately ripped 9 | (3/3) Accurately ripped 10 | (3/3) Accurately ripped 11 | (3/3) Accurately ripped 12 | (3/3) Accurately ripped 13 | (3/3) Accurately ripped 14 | (3/3) Accurately ripped 15 | (3/3) Accurately ripped 16 | (3/3) Accurately ripped 17 | (3/3) Accurately ripped 18 | (3/3) Accurately ripped 19 | (3/3) Accurately ripped 20 | (3/3) Accurately ripped 21 | (3/3) Accurately ripped 22 | (3/3) Accurately ripped 23 | (3/3) Accurately ripped 24 | (3/3) Accurately ripped
==== Log checksum BA9983B403D1C1464F472BB08714A5545CD6CEE93B519AACCC4B094EE7D00567 ====

Содержание индексной карты (.CUE)

REM GENRE SoulREM DATE 2017REM DISCID 500E2518REM COMMENT "ExactAudioCopy v1.3"PERFORMER "Various Artists"TITLE "More From The Other Side Of The Trax: Stax-Volt 45rpm Rarities 1960-1968"REM COMPOSER ""FILE "01 - Barbara & The Browns - I Don't Want Trouble.wav" WAVE TRACK 01 AUDIO TITLE "I Don't Want Trouble" PERFORMER "Barbara & The Browns" REM COMPOSER "" INDEX 01 00:00:00 TRACK 02 AUDIO TITLE "What'cha Gonna Do" PERFORMER "William Bell" REM COMPOSER "" INDEX 00 02:02:07FILE "02 - William Bell - What'cha Gonna Do.wav" WAVE INDEX 01 00:00:00 TRACK 03 AUDIO TITLE "Fine And Mellow" PERFORMER "Rufus Thomas" REM COMPOSER "" INDEX 00 02:35:67FILE "03 - Rufus Thomas - Fine And Mellow.wav" WAVE INDEX 01 00:00:00 TRACK 04 AUDIO TITLE "Grab This Thing Pt 2" PERFORMER "The Mar-Keys" REM COMPOSER "" INDEX 00 02:55:39FILE "04 - The Mar-Keys - Grab This Thing Pt 2.wav" WAVE INDEX 01 00:00:00 TRACK 05 AUDIO TITLE "You Make A Strong Girl Weak" PERFORMER "The Premiers" REM COMPOSER "" INDEX 00 02:17:74FILE "05 - The Premiers - You Make A Strong Girl Weak.wav" WAVE INDEX 01 00:00:00 TRACK 06 AUDIO TITLE "The Puppet" PERFORMER "Carla Thomas" REM COMPOSER "" INDEX 00 02:34:44FILE "06 - Carla Thomas - The Puppet.wav" WAVE INDEX 01 00:00:00 TRACK 07 AUDIO TITLE "All Night Worker" PERFORMER "Rufus Thomas" REM COMPOSER "" INDEX 00 02:40:63FILE "07 - Rufus Thomas - All Night Worker.wav" WAVE INDEX 01 00:00:00 TRACK 08 AUDIO TITLE "Good Love, Bad Love" PERFORMER "Eddie Floyd" REM COMPOSER "" INDEX 00 02:13:70FILE "08 - Eddie Floyd - Good Love, Bad Love.wav" WAVE INDEX 01 00:00:00 TRACK 09 AUDIO TITLE "I Don't Worry" PERFORMER "Barbara Stephens" REM COMPOSER "" INDEX 00 02:13:71FILE "09 - Barbara Stephens - I Don't Worry.wav" WAVE INDEX 01 00:00:00 TRACK 10 AUDIO TITLE "Down Deep Inside" PERFORMER "Carla & Rufus" REM COMPOSER "" INDEX 00 02:20:11FILE "10 - Carla & Rufus - Down Deep Inside.wav" WAVE INDEX 01 00:00:00 TRACK 11 AUDIO TITLE "Don't Make Something Out Of Nothing" PERFORMER "William Bell" REM COMPOSER "" INDEX 00 02:20:25FILE "11 - William Bell - Don't Make Something Out Of Nothing.wav" WAVE INDEX 01 00:00:00 TRACK 12 AUDIO TITLE "The Dribble" PERFORMER "The Mar-Keys" REM COMPOSER "" INDEX 00 02:23:20FILE "12 - The Mar-Keys - The Dribble.wav" WAVE INDEX 01 00:00:00 TRACK 13 AUDIO TITLE "It's Starting To Grow" PERFORMER "Carla Thomas" REM COMPOSER "" INDEX 00 02:21:15FILE "13 - Carla Thomas - It's Starting To Grow.wav" WAVE INDEX 01 00:00:00 TRACK 14 AUDIO TITLE "Talkin' 'Bout True Love" PERFORMER "Rufus Thomas" REM COMPOSER "" INDEX 00 02:46:70FILE "14 - Rufus Thomas - Talkin' 'Bout True Love.wav" WAVE INDEX 01 00:00:00 TRACK 15 AUDIO TITLE "One Plus One" PERFORMER "William Bell" REM COMPOSER "" INDEX 00 02:39:61FILE "15 - William Bell - One Plus One.wav" WAVE INDEX 01 00:00:00 TRACK 16 AUDIO TITLE "Never Let You Go" PERFORMER "Rufus & Carla Thomas" REM COMPOSER "" INDEX 00 02:38:39FILE "16 - Rufus & Carla Thomas - Never Let You Go.wav" WAVE INDEX 01 00:00:00 TRACK 17 AUDIO TITLE "Reputation" PERFORMER "The Four Shells" REM COMPOSER "" INDEX 00 02:43:24FILE "17 - The Four Shells - Reputation.wav" WAVE INDEX 01 00:00:00 TRACK 18 AUDIO TITLE "Mini-Skirt Minnie" PERFORMER "Sir Mack Rice" REM COMPOSER "" INDEX 00 02:48:19FILE "18 - Sir Mack Rice - Mini-Skirt Minnie.wav" WAVE INDEX 01 00:00:00 TRACK 19 AUDIO TITLE "Greasy Spoon" PERFORMER "Rufus Thomas" REM COMPOSER "" INDEX 00 02:19:18FILE "19 - Rufus Thomas - Greasy Spoon.wav" WAVE INDEX 01 00:00:00 TRACK 20 AUDIO TITLE "I Want You Back" PERFORMER "Carla Thomas" REM COMPOSER "" INDEX 00 02:32:62FILE "20 - Carla Thomas - I Want You Back.wav" WAVE INDEX 01 00:00:00 TRACK 21 AUDIO TITLE "The Shovel" PERFORMER "The Mar-Keys" REM COMPOSER "" INDEX 00 02:30:19FILE "21 - The Mar-Keys - The Shovel.wav" WAVE INDEX 01 00:00:00 TRACK 22 AUDIO TITLE "I'm Waiting On You" PERFORMER "William Bell" REM COMPOSER "" INDEX 00 02:28:73FILE "22 - William Bell - I'm Waiting On You.wav" WAVE INDEX 01 00:00:00 TRACK 23 AUDIO TITLE "Raw Dough" PERFORMER "The Triumphs" REM COMPOSER "" INDEX 00 02:35:29FILE "23 - The Triumphs - Raw Dough.wav" WAVE INDEX 01 00:00:00 TRACK 24 AUDIO TITLE "Don't Let The Love Light Leave" PERFORMER "Carla Thomas" REM COMPOSER "" INDEX 00 02:09:26FILE "24 - Carla Thomas - Don't Let The Love Light Leave.wav" WAVE INDEX 01 00:00:00
[ru-zerkalo.org]_t_5712100
Torrent: Registered ·  [ 2019-04-01 23:51 ] ·  0fa6e7f714b5367a1f847f548124723e80f77005

14 KB

Status: checked
Completed: 0 times
Size: 285 MB
Rating: 
(Votes: 0)
Say thanks: 0  Thanks
 
Похожие темы
[Profile] [PM]
Display posts from previous:    
Reply to topic

The time now is: Today 21:34

All times are GMT + 7 Hours



You cannot post new topics in this forum
You cannot reply to topics in this forum
You cannot edit your posts in this forum
You cannot delete your posts in this forum
You cannot vote in polls in this forum
You cannot attach files in this forum
You can download files in this forum