Register · 
Username: Password:
 ·  Forgot password?

[DTSCD][UP] VA - Trance Allstars \'Worldwide\' - 2000 (Trance, Ambient, Downtempo)

Reply to topic
DL-List and Torrent activity [Update пиров]
Size:  1.63 GB   |    Registered:  9 months 20 days   |    Completed:  0 times

Seeder not seen: 3 months 6 days

 
   
 
 
 
Author Message

manic-manic ®

Gender:

Longevity: 6 years 3 months

Posts: 14192

Post 02-Apr-2019 22:29

[Quote]

VA - Trance Allstars 'Worldwide' DTS UPMix
Формат записи/Источник записи: [DTSCD][UP]
Наличие водяных знаков: Нет
Год издания/переиздания диска: 2000
Жанр: Trance, Ambient, Downtempo
Издатель (лейбл): Ultra Records ‎
Продолжительность: 12
Наличие сканов в содержимом раздачи: Да (сканы)
Треклист:
CD1:
01 ATB - Ready To Flow 3:40
02 Schiller - Ruhe (Ayla Remix) 3:52
03 ATB - 9 PM (Till I Come) (Matt Darey Mix) 4:25
04 Mellow Trax - Outa Space (Ramon Zenker Remix) 6:32
05 Taucher - Bizarre (DJ Sakin vs. Stenzel Remix) 3:53
06 Talla 2XLC - Love's Comin' Down (Moguai Remix) 3:59
07 Sunbeam - Outside World (Schiller Remix) 5:22
08 Schiller - Unendlich 4:09
09 Taucher - Alright 3:36
10 Talla 2XLC - Energy 4:38
11 Sunbeam - Ten 5:23
12 ATB - My Dream 7:01
13 DJ Mellow-D - Basskick 6:39
14 Sunbeam - Purple 5:40
15 Taucher - Outside World 4:08
16 Schiller - Sonnenuntergang 4:00
CD2:
01 Sunbeam - The First Rebirth 3:28
02 Spacekid meets ATB - Tune 6:09
03 Sunbeam - Phoenix 5:07
04 Talla 2XLC - Seize The Night 3:56
05 DJ Mellow-D - Something Wonderful 7:22
06 Schiller - Der Anfang II 3:15
07 Taucher - Amazone Dreaming 4:13
08 ATB - Repulse 2:41
09 Talla 2XLC - Perfect Moments 3:49
10 DJ Mellow-D - Rain 6:41
11 Sunbeam - Infusion 5:51
12 Taucher - Lucky Star 3:50
13 Schiller - Die Wirklichkeit 4:19
14 ATB - Klangwelt 7:15
15 Talla 2XLC - Let It Go 4:14
16 DJ Mellow-D - Naturally Voices 7:06
Контейнер: WAV(*.wav)
Тип рипа: tracks
Разрядность: 16/44,1
Формат: DTS
Количество каналов: 5.1
Битрейт аудио: 1411 kbps

DR-лог

CD1:foobar2000 1.4.2 / Dynamic Range Meter 1.1.1log date: 2019-03-16 20:33:40
--------------------------------------------------------------------------------Analyzed: ? / ?--------------------------------------------------------------------------------
DR Peak RMS Duration Track--------------------------------------------------------------------------------DR10 -1.75 dB -13.72 dB 3:40 ?-01 ATB - Ready To Flow DTSDR10 -1.25 dB -13.74 dB 3:52 ?-02 Schiller - Ruhe (Ayla Remix) DTSDR10 -1.23 dB -13.72 dB 4:25 ?-03 ATB - 9 PM (Till I Come) (Matt Darey Mix) DTSDR8 -2.77 dB -13.69 dB 6:32 ?-04 Mellow Trax - Outa Space (Ramon Zenker Remix) DTSDR8 -2.20 dB -13.70 dB 3:53 ?-05 Taucher - Bizarre (DJ Sakin vs. Stenzel Remix) DTSDR9 -1.76 dB -13.70 dB 3:59 ?-06 Talla 2XLC - Love's Comin' Down (Moguai Remix) DTSDR10 -1.24 dB -13.71 dB 5:22 ?-07 Sunbeam - Outside World (Schiller Remix) DTSDR9 -1.57 dB -13.69 dB 4:09 ?-08 Schiller - Unendlich DTSDR10 -1.06 dB -13.69 dB 3:36 ?-09 Taucher - Alright DTSDR9 -2.85 dB -13.71 dB 4:38 ?-10 Talla 2XLC - Energy DTSDR10 -1.38 dB -13.70 dB 5:23 ?-11 Sunbeam - Ten DTSDR10 -1.34 dB -13.70 dB 7:01 ?-12 ATB - My Dream DTSDR9 -2.51 dB -13.68 dB 6:39 ?-13 DJ Mellow-D - Basskick DTSDR9 -2.27 dB -13.72 dB 5:40 ?-14 Sunbeam - Purple DTSDR10 -1.25 dB -13.72 dB 4:08 ?-15 Taucher - Outside World DTSDR10 -1.86 dB -13.68 dB 4:00 ?-16 Schiller - Sonnenuntergang DTS--------------------------------------------------------------------------------
Number of tracks: 16Official DR value: DR9
Samplerate: 44100 HzChannels: 6Bits per sample: 16Bitrate: 1411 kbpsCodec: DTS================================================================================
CD2:foobar2000 1.4.2 / Dynamic Range Meter 1.1.1log date: 2019-03-16 20:38:32
--------------------------------------------------------------------------------Analyzed: ? / ?--------------------------------------------------------------------------------
DR Peak RMS Duration Track--------------------------------------------------------------------------------DR10 -2.55 dB -13.75 dB 3:28 ?-01 Sunbeam - The First Rebirth DTSDR9 -2.77 dB -13.69 dB 6:09 ?-02 Spacekid meets ATB - Tune DTSDR9 -2.16 dB -13.71 dB 5:07 ?-03 Sunbeam - Phoenix DTSDR9 -3.09 dB -13.73 dB 3:56 ?-04 Talla 2XLC - Seize The Night DTSDR9 -2.26 dB -13.72 dB 7:22 ?-05 DJ Mellow-D - Something Wonderful DTSDR9 -0.77 dB -13.69 dB 3:15 ?-06 Schiller - Der Anfang II DTSDR10 -2.12 dB -13.73 dB 4:13 ?-07 Taucher - Amazone Dreaming DTSDR9 -1.09 dB -13.86 dB 2:41 ?-08 ATB - Repulse DTSDR9 -2.29 dB -13.73 dB 3:49 ?-09 Talla 2XLC - Perfect Moments DTSDR10 -1.97 dB -13.70 dB 6:41 ?-10 DJ Mellow-D - Rain DTSDR10 -2.73 dB -13.68 dB 5:51 ?-11 Sunbeam - Infusion DTSDR10 -1.32 dB -13.70 dB 3:50 ?-12 Taucher - Lucky Star DTSDR9 -1.19 dB -13.73 dB 4:19 ?-13 Schiller - Die Wirklichkeit DTSDR10 -1.09 dB -13.67 dB 7:15 ?-14 ATB - Klangwelt DTSDR10 -2.45 dB -13.70 dB 4:14 ?-15 Talla 2XLC - Let It Go DTSDR10 -2.16 dB -13.98 dB 7:06 ?-16 DJ Mellow-D - Naturally Voices DTS--------------------------------------------------------------------------------
Number of tracks: 16Official DR value: DR10
Samplerate: 44100 HzChannels: 6Bits per sample: 16Bitrate: 1411 kbpsCodec: DTS================================================================================
Источник (релизер): Оригинальные CD
Доп. информация: DJ S.A.W. DTS Upmix
Метод получения апмикса:
ручное выделение фазо-частотных фрагментов фонограммы с помощью функции CCE Adobe Audition
мультиканальный мастеринг – Аdobe Audition (встроенными эффектами и плагинами Waves, iZotope,
Starplugs и т.п.)
[ru-zerkalo.org]_t_5711278
Torrent: Registered ·  [ 2019-04-02 22:27 ] ·  e28530d8fd4aae12423fe02024777afa7f80c71c

20 KB

Status: checked
Completed: 0 times
Size: 1.63 GB
Rating: 
(Votes: 0)
Say thanks: 0  Thanks
 
Похожие темы
[Profile] [PM]
Display posts from previous:    
Reply to topic

The time now is: Today 19:14

All times are GMT + 7 Hours



You cannot post new topics in this forum
You cannot reply to topics in this forum
You cannot edit your posts in this forum
You cannot delete your posts in this forum
You cannot vote in polls in this forum
You cannot attach files in this forum
You can download files in this forum