Register · 
Username: Password:
 ·  Forgot password?

[DTSCD][UP] 2 Unlimited - II - 1998 (Eurodance, Techno)

Reply to topic
DL-List and Torrent activity [Update пиров]
Size:  468 MB   |    Registered:  7 months 19 days   |    Completed:  1 time

Seeder not seen: 2 days

 
   
 
 
 
Author Message

manic-manic ®

Gender:

Longevity: 6 years 2 months

Posts: 13804

Post 20-Apr-2019 23:51

[Quote]

2 Unlimited - II DTS UPMix
Формат записи/Источник записи: [DTSCD][UP]
Наличие водяных знаков: Нет
Год издания/переиздания диска: 1998
Жанр: Eurodance, Techno
Издатель(лейбл): ZYX Music
Наличие сканов в содержимом раздачи: Да (сканы)
Треклист:
01 Wanna get up
02 The edge of heaven
03 Never surrender
04 Close 2 U
05 Back unto the groove
06 Someone to get there
07 I am ready
08 Move on up
09 Let's celebrate
10 Be free tonight
Контейнер: WAV(*.wav)
Тип рипа: tracks
Разрядность: 16/44,1
Формат: DTS
Количество каналов: 5.1
Битрейт аудио: 1411 kbps

DR-лог

foobar2000 1.4.2 / Dynamic Range Meter 1.1.1log date: 2019-04-14 17:20:55
--------------------------------------------------------------------------------Analyzed: ? / ?--------------------------------------------------------------------------------
DR Peak RMS Duration Track--------------------------------------------------------------------------------DR9 -2.76 dB -13.00 dB 3:17 ?-01_2 Unlimited - Wanna Get Up DTSDR9 -2.02 dB -13.00 dB 4:16 ?-02_2 Unlimited - The Edge of Heaven DTSDR9 -1.40 dB -13.00 dB 4:33 ?-03_2 Unlimited - Never Surrender DTSDR9 -2.30 dB -13.10 dB 5:15 ?-04_2 Unlimited - Close 2 U DTSDR9 -1.27 dB -13.00 dB 4:02 ?-05_2 Unlimited - Back Unto the Groove DTSDR9 -1.91 dB -13.00 dB 5:27 ?-06_2 Unlimited - Someone to Get There DTSDR8 -1.98 dB -13.00 dB 3:21 ?-07_2 Unlimited - I Am Ready DTSDR9 -2.41 dB -13.10 dB 4:39 ?-08_2 Unlimited - Move on Up DTSDR8 -2.53 dB -13.10 dB 3:57 ?-09_2 Unlimited - Let's Celebrate DTSDR9 -2.20 dB -13.00 dB 3:51 ?-10_2 Unlimited - Be Free Tonight DTS--------------------------------------------------------------------------------
Number of tracks: 10Official DR value: DR9
Samplerate: 44100 HzChannels: 6Bits per sample: 16Bitrate: 1411 kbpsCodec: DTS================================================================================
Источник (релизер): Оригинальный CD
Доп. информация: DJ S.A.W. DTS Upmix
Метод получения апмикса:
ручное выделение фазо-частотных фрагментов фонограммы с помощью функции CCE Adobe Audition
мультиканальный мастеринг – Аdobe Audition (встроенными эффектами и плагинами Waves, iZotope,
Starplugs и т.п.)
[ru-zerkalo.org]_t_4994215
Torrent: Registered ·  [ 2019-04-20 23:49 ] ·  6e90b52cf0cd086cff6138b2896c9ff2da7819f5

20 KB

Status: checked
Completed: 1 times
Size: 468 MB
Rating: 
(Votes: 0)
Say thanks: 0  Thanks
 
Похожие темы
[Profile] [PM]
Display posts from previous:    
Reply to topic

The time now is: Today 02:29

All times are GMT + 7 Hours



You cannot post new topics in this forum
You cannot reply to topics in this forum
You cannot edit your posts in this forum
You cannot delete your posts in this forum
You cannot vote in polls in this forum
You cannot attach files in this forum
You can download files in this forum