Register · 
Username: Password:
 ·  Forgot password?

[DTSCD][UP] Agar Agar - The Dog and the Future - 2018 (Synth-Pop, Nu Disco)

Reply to topic
DL-List and Torrent activity [Update пиров]
Size:  451 MB   |    Registered:  8 months 18 days   |    Completed:  1 time

Seeder not seen: 7 months 29 days

 
   
 
 
 
Author Message

manic-manic ®

Gender:

Longevity: 6 years 3 months

Posts: 14192

Post 04-May-2019 22:26

[Quote]

Agar Agar - The Dog and the Future DTS UPMix
Формат записи/Источник записи: [DTSCD][UP]
Наличие водяных знаков: Нет
Год издания/переиздания диска: 2018
Жанр: Synth-Pop, Nu Disco
Издатель (лейбл): Grönland Records
Продолжительность: 00:44:00
Наличие сканов в содержимом раздачи: Только обложка альбома
Треклист:
1 Made
2 Lost Dog
3 Sorry About The Carpet
4 Fangs Out
5 Gigi Song
6 Shivers
7 Lunatic Fight Jungle
8 Duke
9 Requiem
10 Schlaflied Für Gestern
Контейнер: WAV(*.wav)
Тип рипа: tracks
Разрядность: 16/44,1
Формат: DTS
Количество каналов: 5.1
Битрейт аудио: 1411 kbps

DR-лог

foobar2000 1.4.2 / Dynamic Range Meter 1.1.1log date: 2019-05-02 17:51:37
--------------------------------------------------------------------------------Analyzed: ? / ?--------------------------------------------------------------------------------
DR Peak RMS Duration Track--------------------------------------------------------------------------------DR11 0.00 dB -13.00 dB 3:49 ?-01_Agar Agar - Made DTSDR11 -0.40 dB -13.00 dB 4:38 ?-02_Agar Agar - Lost Dog DTSDR10 -0.74 dB -13.00 dB 6:08 ?-03_Agar Agar - Sorry About the Carpet DTSDR10 -2.04 dB -13.00 dB 5:06 ?-04_Agar Agar - Fangs Out DTSDR10 -0.22 dB -13.00 dB 3:45 ?-05_Agar Agar - Gigi Song DTSDR10 -1.79 dB -13.00 dB 6:18 ?-06_Agar Agar - Shivers DTSDR11 -1.22 dB -13.00 dB 4:20 ?-07_Agar Agar - Lunatic Fight Jungle DTSDR9 -0.47 dB -13.00 dB 2:45 ?-08_Agar Agar - Duke DTSDR10 -0.49 dB -13.00 dB 4:35 ?-09_Agar Agar - Requiem DTSDR9 -0.33 dB -13.00 dB 3:16 ?-10_Agar Agar - Schlaflied fur gestern DTS--------------------------------------------------------------------------------
Number of tracks: 10Official DR value: DR10
Samplerate: 44100 HzChannels: 6Bits per sample: 16Bitrate: 1411 kbpsCodec: DTS================================================================================
Источник (релизер): Оригинальный CD
Доп. информация: DJ S.A.W. DTS Upmix
Метод получения апмикса:
ручное выделение фазо-частотных фрагментов фонограммы с помощью функции CCE Adobe Audition
мультиканальный мастеринг – Аdobe Audition (встроенными эффектами и плагинами Waves, iZotope,
Starplugs и т.п.)
[ru-zerkalo.org]_t_5726643
Torrent: Registered ·  [ 2019-05-04 22:24 ] ·  82d53fd586f77d45c94fd1866d7ac2b89e8897dc

19 KB

Status: checked
Completed: 1 times
Size: 451 MB
Rating: 
(Votes: 0)
Say thanks: 0  Thanks
 
Похожие темы
[Profile] [PM]
Display posts from previous:    
Reply to topic

The time now is: Today 19:16

All times are GMT + 7 Hours



You cannot post new topics in this forum
You cannot reply to topics in this forum
You cannot edit your posts in this forum
You cannot delete your posts in this forum
You cannot vote in polls in this forum
You cannot attach files in this forum
You can download files in this forum