Register · 
Username: Password:
 ·  Forgot password?

(Gothic Metal) [WEB] Pythia - The Solace of Ancient Earth - 2019, FLAC (tracks), lossless

Reply to topic
DL-List and Torrent activity [Update пиров]
Size:  414 MB   |    Registered:  6 months 23 days   |    Completed:  1 time

Seeder not seen: 2 months 10 days

 
   
 
 
 
Author Message

manic-manic ®

Gender:

Longevity: 6 years 2 months

Posts: 13832

Post 20-May-2019 00:00

[Quote]



Pythia

The Solace of Ancient Earth





• Жанр: Gothic Metal
• Носитель: WEB
• Год издания: 2019
• Страна: Germany
• Аудиокодек: FLAC (*.flac)
• Тип рипа: tracks
• Продолжительность: 00:54:26
internet
• Наличие сканов: front

01 - An Earthen Lament (00:05:26)
02 - Spirits of the Trees (00:04:55)
03 - Ancient Soul (00:04:21)
04 - Black Wings (00:05:06)
05 - Your Dark Reign (00:04:53)
06 - Dawn Will Come (00:05:20)
07 - Hold of Winter (00:04:54)
08 - Ghost in the Woods (00:06:16)
09 - Crumble to Dust (00:05:34)
10 - Soul to the Sea (00:07:38)
--

• Лог DRM •

foobar2000 1.4.2 / Dynamic Range Meter 1.1.1log date: 2019-05-19 09:08:43
--------------------------------------------------------------------------------Analyzed: Pythia / The Solace of Ancient Earth--------------------------------------------------------------------------------
DR Peak RMS Duration Track--------------------------------------------------------------------------------DR6 -0.89 dB -7.79 dB 5:26 01-An Earthen LamentDR6 -0.86 dB -7.48 dB 4:56 02-Spirits of the TreesDR6 -0.90 dB -7.68 dB 4:21 03-Ancient SoulDR6 -0.89 dB -8.06 dB 5:06 04-Black WingsDR5 -0.84 dB -7.55 dB 4:53 05-Your Dark ReignDR6 -0.85 dB -8.41 dB 5:21 06-Dawn Will ComeDR6 -0.90 dB -7.54 dB 4:54 07-Hold of WinterDR6 -0.88 dB -8.70 dB 6:16 08-Ghost in the WoodsDR6 -0.89 dB -8.37 dB 5:35 09-Crumble to DustDR6 -0.89 dB -8.70 dB 7:38 10-Soul to the Sea--------------------------------------------------------------------------------
Number of tracks: 10Official DR value: DR6
Samplerate: 44100 HzChannels: 2Bits per sample: 16Bitrate: 1000 kbpsCodec: FLAC================================================================================
-

• Лог проверки качества •

-----------------------
DON'T MODIFY THIS FILE
-----------------------
PERFORMER: auCDtect Task Manager, ver. 1.6.0 RC1 build 1.6.0.1Copyright (c) 2008-2010 y-soft. All rights reservedhttp://y-soft.org
ANALYZER: auCDtect: CD records authenticity detector, version 0.8.2Copyright (c) 2004 Oleg Berngardt. All rights reserved.Copyright (c) 2004 Alexander Djourik. All rights reserved.
FILE: 10 - Soul to the Sea.flac Size: 57341177 Hash: 6FAFFE6C6D87607002147ABEB8A8F04E Accuracy: -m8 Conclusion: CDDA 100% Signature: 54C8024DE9CC737BA8E26F76FA85EEE6F3055E2AFILE: 09 - Crumble to Dust.flac Size: 44610556 Hash: 17BCCD2A14E18D913252D6668E095301 Accuracy: -m8 Conclusion: CDDA 100% Signature: 0D7CA710D864AE4E923A84DD1D68073C9746CED3FILE: 08 - Ghost in the Woods.flac Size: 49571597 Hash: FC05F19E6D96068DC22618FB34D06925 Accuracy: -m8 Conclusion: CDDA 99% Signature: 80EB7E7E766842C47D1170D92452B20201880DCCFILE: 07 - Hold of Winter.flac Size: 40865959 Hash: 51EA6B9565A339A5C1F02BBAE9D718B0 Accuracy: -m8 Conclusion: CDDA 100% Signature: 6823A5DAF00D062E00F2FE59C5B4C231F03788EBFILE: 06 - Dawn Will Come.flac Size: 41801811 Hash: B452708C4E1BD204A224202866D5EDE7 Accuracy: -m8 Conclusion: CDDA 100% Signature: A869958FF70B526C260A7B1594B65390141D5B3EFILE: 05 - Your Dark Reign.flac Size: 39151174 Hash: 529E337DA095984A3D7724CFFF6A9059 Accuracy: -m8 Conclusion: CDDA 100% Signature: CC8805D15F770D75E2F3F64AB11C82B175E29CCCFILE: 04 - Black Wings.flac Size: 40274593 Hash: AD030A556BE28DBCCE4704909ACB669D Accuracy: -m8 Conclusion: CDDA 100% Signature: 3B27C09F24FAE2C6554A02C4DA0D4ACC8B09FA13FILE: 03 - Ancient Soul.flac Size: 35442672 Hash: B03627BFB71FECF28507328B179BFE10 Accuracy: -m8 Conclusion: CDDA 99% Signature: 7DF0A00574E6B3274DE70C8F929E334AFB4C90EFFILE: 02 - Spirits of the Trees.flac Size: 40483629 Hash: 610AE1FE697AFF0884A82F2F116EEF2B Accuracy: -m8 Conclusion: CDDA 100% Signature: EB9C6094131BE3036191342553680B0707C53A2EFILE: 01 - An Earthen Lament.flac Size: 43454439 Hash: 3A10BB8A4F18AA11FC6903936433A3D3 Accuracy: -m8 Conclusion: CDDA 100% Signature: 412281A730149C93DEB22B07F0AEACBFC34CE103
-

• Information •

Line-Up:
Sophie Dorman - Vocals
Ross White - Guitars
Jamie Hunt - Guitars
Ash Porter - Bass
Marcus Matusiak - Keyboards
Marc Dyos - Drums
-
[ru-zerkalo.org]_t_5733788
Torrent: Registered ·  [ 2019-05-19 23:47 ] ·  5169f160e68cb3c4e363455be9505c413d2c116a

17 KB

Status: checked
Completed: 1 times
Size: 414 MB
Rating: 
(Votes: 0)
Say thanks: 0  Thanks
 
Похожие темы
[Profile] [PM]
Display posts from previous:    
Reply to topic

The time now is: Today 21:36

All times are GMT + 7 Hours



You cannot post new topics in this forum
You cannot reply to topics in this forum
You cannot edit your posts in this forum
You cannot delete your posts in this forum
You cannot vote in polls in this forum
You cannot attach files in this forum
You can download files in this forum