Register · 
Username: Password:
 ·  Forgot password?

Инаугурация президента Украины Владимира Зеленского (Настоящее время) [2019, прямая трансляция, ток-шоу, SATRip]

Reply to topic
DL-List and Torrent activity [Update пиров]
Size:  1.01 GB   |    Registered:  6 months 12 days   |    Completed:  1 time

Seeder not seen: 6 months 11 days

 
   
 
 
 
Author Message

god56 ®

Gender:

Longevity: 6 years 2 months

Posts: 25365

Post 28-May-2019 20:18

[Quote]

Инаугурация президента Украины Владимира Зеленского
Дата/Год выпуска: 2019
Страна: Чехия-Украина
Жанр: прямая трансляция, ток-шоу
Продолжительность: 02:19:53
Перевод: Не требуется
Русские субтитры: нет
Оригинальная аудиодорожка: русский, украинский
Ведущий: Егор Максимов
Телеканал: Спутниковый телеканал "Настоящее время" (Current Time TV) SDОписание: В сессионном зале парламента Украины 20 мая прошла инаугурация новоизбранного президента Владимира Зеленского. На церемонию приехали президенты Латвии, Литвы, Эстонии, Грузии и Венгрии, глава сената Чехии, глава парламента Азербайджана, вице-премьеры Беларуси и Армении, министр энергетики США, министры из Грузии, Молдовы, Польши, Словакии и других стран. Кроме того, в зале присутствовали все бывшие президенты Украины, кроме Виктора Януковича.
Доп. информация: Запись эфира спутникового телеканала "Настоящее время" за 20 апреля 2019 года с 9:00 до 11:20 по киевскому времени.
Сэмпл: http://www.sendspace.com/file/titc8h
качество: SATRip
формат: AVI
Видео: Xvid 720x400 (16:9) ~896kbps 25fps
Аудио: MP3 128kbps 48kHz 1ch

MediaInfo

GeneralComplete name : F:\Мои раздачи\Новости\2019\Настоящее время\Инаугурация президента Украины Владимира Зеленского. 20.05.2019. Настоящее время.aviFormat : AVIFormat/Info : Audio Video InterleaveFile size : 1.01 GiBDuration : 2 h 19 minOverall bit rate : 1 033 kb/s
VideoID : 0Format : MPEG-4 VisualFormat profile : Advanced Simple@L5Format settings : BVOP2Format settings, BVOP : 2Format settings, QPel : NoFormat settings, GMC : No warppointsFormat settings, Matrix : Default (H.263)Codec ID : XVIDCodec ID/Hint : XviDDuration : 2 h 19 minBit rate : 895 kb/sWidth : 720 pixelsHeight : 400 pixelsDisplay aspect ratio : 16:9Frame rate : 25.000 FPSColor space : YUVChroma subsampling : 4:2:0Bit depth : 8 bitsScan type : ProgressiveCompression mode : LossyBits/(Pixel*Frame) : 0.124Stream size : 896 MiB (87%)Writing library : XviD 67
AudioID : 1Format : MPEG AudioFormat version : Version 1Format profile : Layer 3Codec ID : 55Codec ID/Hint : MP3Duration : 2 h 19 minBit rate mode : ConstantBit rate : 128 kb/sChannel(s) : 1 channelSampling rate : 48.0 kHzCompression mode : LossyStream size : 128 MiB (12%)Alignment : Split accross interleavesInterleave, duration : 40 ms (1.00 video frame)Interleave, preload duratio : 500 ms

Скриншоты

[ru-zerkalo.org]_t_5737311
Torrent: Registered ·  [ 2019-05-28 20:18 ] ·  e569d9094fc68dbc3e8a04f64c2129cd7ddb7b99

11 KB

Status: checked
Completed: 1 times
Size: 1.01 GB
Rating: 
(Votes: 1)
Say thanks: 0  Thanks
 
Похожие темы
[Profile] [PM]
Display posts from previous:    
Reply to topic

The time now is: Today 02:31

All times are GMT + 7 Hours



You cannot post new topics in this forum
You cannot reply to topics in this forum
You cannot edit your posts in this forum
You cannot delete your posts in this forum
You cannot vote in polls in this forum
You cannot attach files in this forum
You can download files in this forum