Register · 
Username: Password:
 ·  Forgot password?

Вилли и крутые тачки / Wheely (Исри Абдул Халим / Yusry Abd Halim) [2018, Малайзия, мультфильм, комедия, приключения, семейный, WEBRip] Dub

Reply to topic
DL-List and Torrent activity [Update пиров]
Size:  1.46 GB   |    Registered:  8 months 18 days   |    Completed:  0 times

Seeder not seen: Never

 
   
 
 
 
Author Message

Dimas28 ®

Gender:

Longevity: 6 years 4 months

Posts: 23868

Post 29-May-2019 22:43

[Quote]

Вилли и крутые тачки / Wheely
Страна: Малайзия
Жанр: мультфильм, комедия, приключения, семейный
Год выпуска: 2018
Продолжительность: 01:29:53-Перевод: Профессиональный (дублированный) | ivi
Субтитры: нет
Оригинальная аудиодорожка: нет-Режиссер: Исри Абдул Халим / Yusry Abd Halim-В ролях: Барбара Гудсон, Крис Джай Алекс, Оги Бэнкс, Гэвин Яп, Билл Дж. Готтлиб, Рэймонд Орта, Джо Мюррэй, Дионг Чхэ Лиан, Тамика Уайт, Томас Пэнг-Описание: Вилли — трижды чемпион по уличным гонкам в Гаскет-Сити, готовится к главному соревнованию в своей жизни. Весь мир у его колёс! Но в решающем заезде он не справился с управлением и упал в глубокую реку. Вилли приходиться стать обычным такси и лишь иногда соревноваться с обычными городскими машинами. Но после неожиданного столкновения с прекрасной итальянской машинкой Беллой, он начинает понимать, что помимо жажды скорости в жизни есть более важные вещи…- -Качество видео: WEBRip
Формат видео: AVI
Видео: 704x368 (1.91:1), 24.000 fps, XviD build 73 ~2115 kbps avg, 0.34 bit/pixel
Аудио: 48 kHz, AC3 Dolby Digital, 2/0 (L,R) ch, ~192 kbps-

Сэмпл-

MediaInfo

Формат                                   : AVI
Формат/Информация                        : Audio Video Interleave
Размер файла                             : 1,46 Гбайт
Продолжительность                        : 1 ч. 29 м.
Общий поток                              : 2317 Кбит/сек
Название фильма                          : Вилли и крутые тачки_2018_WEB-DLRip
Программа кодирования                    : VirtualDubMod 1.5.10.3 | www.virtualdub-fr.org || (build 2550/release)
Авторское право                          : порошков
Видео
Идентификатор                            : 0
Формат                                   : MPEG-4 Visual
Профиль формата                          : Advanced Simple@L5
Настройки формата                        : BVOP1 / Custom Matrix
Параметр BVOP формата                    : 1
Параметр QPel формата                    : Нет
Параметр GMC формата                     : Без точки перехода
Параметр матрицы формата                 : Выборочная
Идентификатор кодека                     : XVID
Идентификатор кодека/Подсказка           : XviD
Продолжительность                        : 1 ч. 29 м.
Битрейт                                  : 2116 Кбит/сек
Ширина                                   : 704 пикселя
Высота                                   : 368 пикселей
Соотношение сторон                       : 1,913
Частота кадров                           : 24,000 кадра/сек
Цветовое пространство                    : YUV
Субдискретизация насыщенности            : 4:2:0
Битовая глубина                          : 8 бит
Тип развёртки                            : Прогрессивная
Метод сжатия                             : С потерями
Бит/(Пиксели*Кадры)                      : 0.340
Размер потока                            : 1,33 Гбайт (91%)
Библиотека кодирования                   : XviD 73
Аудио
Идентификатор                            : 1
Формат                                   : AC-3
Формат/Информация                        : Audio Coding 3
Коммерческое название                    : Dolby Digital
Идентификатор кодека                     : 2000
Продолжительность                        : 1 ч. 29 м.
Вид битрейта                             : Постоянный
Битрейт                                  : 192 Кбит/сек
Каналы                                   : 2 канала
ChannelLayout                            : L R
Частота                                  : 48,0 КГц
Частота кадров                           : 31,250 кадров/сек (1536 SPF)
Битовая глубина                          : 16 бит
Метод сжатия                             : С потерями
Размер потока                            : 123 Мбайт (8%)
Выравнивание                             : Разделение по промежуткам
Продолжительность промежутка             : 42  мс. (1,00 видеокадр)
Время предзагрузки промежутка            : 500  мс.
ServiceKind/String                       : Complete Main

Скриншоты


[ru-zerkalo.org]_t_5735623
Torrent: Registered ·  [ 2019-05-29 22:41 ] ·  0eea86332082945eda295fd90de25a2183fb20e4

15 KB

Status: checked
Completed: 0 times
Size: 1.46 GB
Rating: 
(Votes: 0)
Say thanks: 0  Thanks
 
Похожие темы
[Profile] [PM]
Display posts from previous:    
Reply to topic

The time now is: Today 15:04

All times are GMT + 7 Hours



You cannot post new topics in this forum
You cannot reply to topics in this forum
You cannot edit your posts in this forum
You cannot delete your posts in this forum
You cannot vote in polls in this forum
You cannot attach files in this forum
You can download files in this forum