Register · 
Username: Password:
 ·  Forgot password?

Тёмный ангел / Восхождение тёмного ангела / The Dark Angel / Dark Angel: The Ascent (Линда Хассани / Linda Hassani) [1994, Румыния, США, мелодрама, ужасы, HDRip] MVO (СТС) + AVO (С. Визгунов) + Original Eng

Reply to topic
DL-List and Torrent activity [Update пиров]
Size:  1.47 GB   |    Registered:  8 months 15 days   |    Completed:  0 times

Seeder not seen: Never

 
   
 
 
 
Author Message

Andrew1225 ®

Gender:

Longevity: 6 years 4 months

Posts: 17668

Post 01-Jun-2019 18:43

[Quote]

Тёмный ангел / Восхождение тёмного ангела / The Dark Angel / Dark Angel: The Ascent
Страна: Румыния, США
Жанр: мелодрама, ужасы
Год выпуска: 1994
Продолжительность: 01:23:51
Перевод 1: Профессиональный (многоголосый закадровый) / «СТС» – Санкт-Петербург
Перевод 2: Авторский (одноголосый закадровый) / Сергей Визгунов
Субтитры: нет
Оригинальная аудиодорожка: английский
Режиссер: Линда Хассани / Linda Hassani
В ролях: Анджела Фезерстоун (Angela Featherstone / Veronica), Дэниэл Маркел (Daniel Markel / Dr. Max Barris), Николас Уорт (Nicholas Worth / Father Hellikin), Шарлотта Стюарт (Charlotte Stewart / Mother Theresa), Майк Дженовезе (Mike Genovese / Detective Harper), Майкл С. Махон (Michael C. Mahon Роса / Detective Greenberg), Штефан Вельничиук (Stefan Velniciuc / Chief Doctor), Михай Динвейл (Mihai Dinvale / Police Chief), Кристина Стоика (Cristina Stoica / Mary), Константин Драганеску (Constantin Draganescu (в титрах: Costica Draganescu) / Man in Hell), Кармен Тэнасе (Carmen Tanase / Ward Nurse), Мариус Стэнеску (Marius Stanescu / Fake Prophet), Константин Котиманис (Constantin Cotimanis / Fake Prophet), Михай Бисерикану (Mihai Bisericanu / E.R. Policeman) и другие.
Описание: Вероника Искариот – «Ангел тьмы» сбегает из Ада, не желая отдуваться за своих предков, которые когда-то утратили веру и за это оказались в преисподней. Едва оказавшись в нашем мире, она попадает под машину. В больнице Вероника знакомится с доктором Максом Бэррисом и влюбляется в него, который в свою очередь также не смог устоять перед её красотой...
Доп. информация: За озвучку СТС (запись на VHS) и видео c а (BDRip 720p) спасибо [url=profile.php?mode=viewprofile&u=3321715]snikersni66[/url]. За озвучку Сергея Визгунова спасибо [url=profile.php?mode=viewprofile&u=5484400]tfsn23[/url]. Дорожку с озвучкой Визгунова почистил от треска, а также посторонних звуков, которые были наложены вместе с голосом: телефонные сигналы, стуки, щелчки и прочее.

Сэмпл: Здесь
Качество видео: HDRip
Формат видео: AVI
Видео: XviD, 720x400 (1,80:1) / 23,976 fps / 1920 kbps / 0,278 bit/pixel
Аудио 1: Russian: AC3 2/0 (L, R) ch, 192 kbps, 48 kHz, 16 bit / многоголосый (СТС / СП-б)
Аудио 2: Russian: AC3 2/0 (L, R) ch, 192 kbps, 48 kHz, 16 bit / одноголосый (С. Визгунов)
Аудио 3: English: AC3 2/0 (L, R) ch, 192 kbps, 48 kHz, 16 bit

MediaInfo

ОбщееПолное имя : D:\Папка для скачиваний в \The.Dark.Angel.1994.HDRip_MVO+AVO+Original.aviФормат : AVIФормат/Информация : Audio Video InterleaveРазмер файла : 1,47 ГбайтПродолжительность : 1 ч. 23 м.Общий поток : 2515 Кбит/секПрограмма кодирования : VirtualDubMod 1.5.10.2 (build 2540/release)Библиотека кодирования : VirtualDubMod build 2540/release
ВидеоИдентификатор : 0Формат : MPEG-4 VisualПрофиль формата : Advanced Simple@L5Параметр BVOP формата : 1Параметр QPel формата : НетПараметр GMC формата : Без точки переходаПараметр матрицы формата : ВыборочнаяИдентификатор кодека : XVIDИдентификатор кодека/Подсказка : XviDПродолжительность : 1 ч. 23 м.Битрейт : 1920 Кбит/секШирина : 720 пикселейВысота : 400 пикселейСоотношение сторон : 16:9Частота кадров : 23,976 кадра/секЦветовое пространство : YUVСубдискретизация насыщенности : 4:2:0Битовая глубина : 8 битТип развёртки : ПрогрессивнаяМетод сжатия : С потерямиБит/(Пиксели*Кадры) : 0.278Размер потока : 1,12 Гбайт (76%)Библиотека кодирования : XviD 1.2.1 (UTC 2008-12-04)
Аудио #1Идентификатор : 1Формат : AC-3Формат/Информация : Audio Coding 3Расширение режима : CM (complete main)Параметр Endianness формата : BigИдентификатор кодека : 2000Продолжительность : 1 ч. 23 м.Вид битрейта : ПостоянныйБитрейт : 192 Кбит/секКаналы : 2 каналаРасположение каналов : Front: L RЧастота : 48,0 КГцБитовая глубина : 16 битМетод сжатия : С потерямиРазмер потока : 115 Мбайт (8%)Выравнивание : Разделение по промежуткамПродолжительность промежутка : 42 мс. (1,00 видеокадр)Время предзагрузки промежутка : 500 мс.Заголовок : MVO (СТС)
Аудио #2Идентификатор : 2Формат : AC-3Формат/Информация : Audio Coding 3Расширение режима : CM (complete main)Параметр Endianness формата : BigИдентификатор кодека : 2000Продолжительность : 1 ч. 23 м.Вид битрейта : ПостоянныйБитрейт : 192 Кбит/секКаналы : 2 каналаРасположение каналов : Front: L RЧастота : 48,0 КГцБитовая глубина : 16 битМетод сжатия : С потерямиРазмер потока : 115 Мбайт (8%)Выравнивание : Разделение по промежуткамПродолжительность промежутка : 42 мс. (1,00 видеокадр)Время предзагрузки промежутка : 500 мс.Заголовок : AVO (С. Визгунов)
Аудио #3Идентификатор : 3Формат : AC-3Формат/Информация : Audio Coding 3Расширение режима : CM (complete main)Параметр Endianness формата : BigИдентификатор кодека : 2000Продолжительность : 1 ч. 23 м.Вид битрейта : ПостоянныйБитрейт : 192 Кбит/секКаналы : 2 каналаРасположение каналов : Front: L RЧастота : 48,0 КГцБитовая глубина : 16 битМетод сжатия : С потерямиРазмер потока : 115 Мбайт (8%)Выравнивание : Разделение по промежуткамПродолжительность промежутка : 42 мс. (1,00 видеокадр)Время предзагрузки промежутка : 500 мс.Заголовок : Original (Eng)

Скриншот c названием фильма

Скриншоты

HDRip и DVDRip (Разница в наполнении кадра)

HDRip:

DVDRip:
[ru-zerkalo.org]_t_5739149
Torrent: Registered ·  [ 2019-06-01 18:43 ] ·  0f675a0c3fb589c5474cbbc33a1dc6ee03f86b57

15 KB

Status: checked
Completed: 0 times
Size: 1.47 GB
Rating: 
(Votes: 0)
Say thanks: 0  Thanks
 
Похожие темы
[Profile] [PM]
Display posts from previous:    
Reply to topic

The time now is: Today 15:02

All times are GMT + 7 Hours



You cannot post new topics in this forum
You cannot reply to topics in this forum
You cannot edit your posts in this forum
You cannot delete your posts in this forum
You cannot vote in polls in this forum
You cannot attach files in this forum
You can download files in this forum