Register · 
Username: Password:
 ·  Forgot password?

(New Age, Ambient, Experimental) [CD] Yoichiro Yoshikawa - A Dream of Aku-Aku - 1987, FLAC (tracks+.cue), lossless

Reply to topic
DL-List and Torrent activity [Update пиров]
Size:  187 MB   |    Registered:  4 months 21 day   |    Completed:  0 times

Seeder not seen: Never

 
   
 
 
 
Author Message

Shadow123 ®

Gender:

Longevity: 6 years

Posts: 14449

Post 01-Jun-2019 22:54

[Quote]

Yoichiro Yoshikawa - A Dream of Aku-Aku
Жанр: New Age, Ambient, Experimental
Носитель: CD
Страна-производитель диска (релиза): Япония
Год издания: 1987
Издатель (лейбл): Eastworld
Номер по каталогу: CT32-5002
Аудиокодек: FLAC (*.flac)
Тип рипа: tracks+.cue
Продолжительность: 00:40:14
Источник: stereoisomer
Наличие сканов в содержимом раздачи: да
Треклист:
01. Patagonia (2:56)
02. K 2 (5:17)
03. Aurora Veil (4:10)
04. Tassili N'Ajjer (3:29)
05. A Dream of Aku-Aku (4:08)
06. Keirin (Remix) (5:14)
07. Dryad at 4 A.M. (3:58)
08. Nettai Gunchou Zu I (1:54)
09. Nettai Gunchou Zu II (2:01)
10. Sahara (5:03)
11. A Dream of Aku-Aku (Rep) (2:04)

Лог создания рипа

Exact Audio Copy V1.3 from 2. September 2016
EAC extraction logfile from 26. August 2018, 14:15
Yoichiro Yoshikawa (吉川洋一郎) / A Dream Of Aku-Aku (アクアクの夢)
Used drive : hp DVDRAM GU90N Adapter: 1 ID: 0
Read mode : SecureUtilize accurate stream : YesDefeat audio cache : YesMake use of C2 pointers : No
Read offset correction : 102Overread into Lead-In and Lead-Out : NoFill up missing offset samples with silence : YesDelete leading and trailing silent blocks : NoNull samples used in CRC calculations : YesUsed interface : Native Win32 interface for Win NT & 2000Gap handling : Appended to previous track
Used output format : User Defined EncoderSelected bitrate : 1024 kBit/sQuality : HighAdd ID3 tag : NoCommand line compressor : C:\Program Files (x86)\Exact Audio Copy\FLAC\FLAC.EXEAdditional command line options : -8 -e -p -V -T "ARTIST=%artist%" -T "TITLE=%title%" -T "ALBUM=%albumtitle%" -T "DATE=%year%" -T "TRACKNUMBER=%tracknr%" -T "GENRE=%genre%" -T "PERFORMER=%albuminterpret%" -T "COMPOSER=%composer%" %haslyrics%--tag-from-file=LYRICS="%lyricsfile%"%haslyrics% -T "ALBUMARTIST=%albumartist%" -T "DISCNUMBER=%cdnumber%" -T "TOTALDISCS=%totalcds%" -T "TOTALTRACKS=%numtracks%" -T "COMMENT=%comment%" %source% -o %dest%
TOC of the extracted CD
Track | Start | Length | Start sector | End sector --------------------------------------------------------- 1 | 0:00.00 | 2:56.02 | 0 | 13201 2 | 2:56.02 | 5:17.33 | 13202 | 37009 3 | 8:13.35 | 4:09.47 | 37010 | 55731 4 | 12:23.07 | 3:29.35 | 55732 | 71441 5 | 15:52.42 | 4:08.13 | 71442 | 90054 6 | 20:00.55 | 5:14.27 | 90055 | 113631 7 | 25:15.07 | 3:58.05 | 113632 | 131486 8 | 29:13.12 | 1:54.18 | 131487 | 140054 9 | 31:07.30 | 2:00.45 | 140055 | 149099 10 | 33:08.00 | 5:03.05 | 149100 | 171829 11 | 38:11.05 | 2:04.05 | 171830 | 181134
Track 1
Filename C:\Music Downloads + Rips\Music Rips\Yoichiro Yoshikawa (吉川洋一郎) - A Dream Of Aku-Aku (アクアクの夢) (1987) {Eastworld CT32-5002} [FLAC]\01 - パタゴニア (Patagonia).wav
Pre-gap length 0:00:02.00
Peak level 95.5 % Extraction speed 1.2 X Track quality 100.0 % Test CRC 57D910CA Copy CRC 57D910CA Accurately ripped (confidence 1) [6A385AFC] (AR v2) Copy OK
Track 2
Filename C:\Music Downloads + Rips\Music Rips\Yoichiro Yoshikawa (吉川洋一郎) - A Dream Of Aku-Aku (アクアクの夢) (1987) {Eastworld CT32-5002} [FLAC]\02 - K 2.wav
Peak level 98.7 % Extraction speed 1.4 X Track quality 100.0 % Test CRC 6AE87D81 Copy CRC 6AE87D81 Accurately ripped (confidence 1) [BF8FE0EC] (AR v2) Copy OK
Track 3
Filename C:\Music Downloads + Rips\Music Rips\Yoichiro Yoshikawa (吉川洋一郎) - A Dream Of Aku-Aku (アクアクの夢) (1987) {Eastworld CT32-5002} [FLAC]\03 - オーロラヴェール (Aurora Veil).wav
Peak level 100.0 % Extraction speed 1.4 X Track quality 99.9 % Test CRC 676E6600 Copy CRC 676E6600 Accurately ripped (confidence 1) [6FA12843] (AR v2) Copy OK
Track 4
Filename C:\Music Downloads + Rips\Music Rips\Yoichiro Yoshikawa (吉川洋一郎) - A Dream Of Aku-Aku (アクアクの夢) (1987) {Eastworld CT32-5002} [FLAC]\04 - Tasili N'Ajjer.wav
Pre-gap length 0:00:02.66
Peak level 60.9 % Extraction speed 1.4 X Track quality 99.9 % Test CRC FAC338BE Copy CRC FAC338BE Accurately ripped (confidence 1) [08F9F2E6] (AR v2) Copy OK
Track 5
Filename C:\Music Downloads + Rips\Music Rips\Yoichiro Yoshikawa (吉川洋一郎) - A Dream Of Aku-Aku (アクアクの夢) (1987) {Eastworld CT32-5002} [FLAC]\05 - アクアクの夢 (A Dream Of Aku-Aku).wav
Peak level 64.8 % Extraction speed 1.7 X Track quality 100.0 % Test CRC 1DCD5400 Copy CRC 1DCD5400 Accurately ripped (confidence 1) [2AE4C72E] (AR v2) Copy OK
Track 6
Filename C:\Music Downloads + Rips\Music Rips\Yoichiro Yoshikawa (吉川洋一郎) - A Dream Of Aku-Aku (アクアクの夢) (1987) {Eastworld CT32-5002} [FLAC]\06 - 桂林 (Keirin) −REMIX−.wav
Pre-gap length 0:00:02.66
Peak level 62.1 % Extraction speed 1.7 X Track quality 99.9 % Test CRC 7C900625 Copy CRC 7C900625 Accurately ripped (confidence 1) [FA03366E] (AR v2) Copy OK
Track 7
Filename C:\Music Downloads + Rips\Music Rips\Yoichiro Yoshikawa (吉川洋一郎) - A Dream Of Aku-Aku (アクアクの夢) (1987) {Eastworld CT32-5002} [FLAC]\07 - 午前4時の木精 (Dryad At 4 A.M.).wav
Peak level 52.4 % Extraction speed 1.7 X Track quality 99.9 % Test CRC BD2AD610 Copy CRC BD2AD610 Accurately ripped (confidence 1) [EA89F5E1] (AR v2) Copy OK
Track 8
Filename C:\Music Downloads + Rips\Music Rips\Yoichiro Yoshikawa (吉川洋一郎) - A Dream Of Aku-Aku (アクアクの夢) (1987) {Eastworld CT32-5002} [FLAC]\08 - 熱帯群蝶図I (Nettai Gunchou Zu I).wav
Peak level 56.1 % Extraction speed 1.8 X Track quality 100.0 % Test CRC 342DE33D Copy CRC 342DE33D Accurately ripped (confidence 1) [66A06F33] (AR v2) Copy OK
Track 9
Filename C:\Music Downloads + Rips\Music Rips\Yoichiro Yoshikawa (吉川洋一郎) - A Dream Of Aku-Aku (アクアクの夢) (1987) {Eastworld CT32-5002} [FLAC]\09 - 熱帯群蝶図II (Nettai Gunchou Zu II).wav
Pre-gap length 0:00:01.17
Peak level 49.1 % Extraction speed 1.8 X Track quality 100.0 % Test CRC E59D2AC2 Copy CRC E59D2AC2 Accurately ripped (confidence 1) [5EF9B66E] (AR v2) Copy OK
Track 10
Filename C:\Music Downloads + Rips\Music Rips\Yoichiro Yoshikawa (吉川洋一郎) - A Dream Of Aku-Aku (アクアクの夢) (1987) {Eastworld CT32-5002} [FLAC]\10 - SAHARA.wav
Pre-gap length 0:00:04.66
Peak level 100.0 % Extraction speed 2.2 X Track quality 100.0 % Test CRC EA5D4653 Copy CRC EA5D4653 Accurately ripped (confidence 1) [D1D6C0CB] (AR v2) Copy OK
Track 11
Filename C:\Music Downloads + Rips\Music Rips\Yoichiro Yoshikawa (吉川洋一郎) - A Dream Of Aku-Aku (アクアクの夢) (1987) {Eastworld CT32-5002} [FLAC]\11 - アクアクの夢 (A Dream Of Aku-Aku) −Rep−.wav
Pre-gap length 0:00:02.17
Peak level 22.6 % Extraction speed 2.0 X Track quality 100.0 % Test CRC 5C0E7C32 Copy CRC 5C0E7C32 Accurately ripped (confidence 1) [4B6FBC62] (AR v2) Copy OK
All tracks accurately ripped
No errors occurred
End of status report
---- CUETools DB Plugin V2.1.6
[CTDB TOCID: opa_WOXume2MrgBWdjfFTTLNUwM-] disk not present in databaseSubmit result: opa_WOXume2MrgBWdjfFTTLNUwM- has been uploaded
==== Log checksum 77F4870AF1700EB26AEF25B58EF1B9DA1377A9D03924237544A55B995FDFFDED ====

Содержание индексной карты (.CUE)

REM GENRE "New Age"REM DATE 1987REM DISCID A6096F0BREM COMMENT "ExactAudioCopy v1.3"PERFORMER "Yoichiro Yoshikawa"TITLE "A Dream of Aku-Aku"FILE "01 - Patagonia.wav" WAVE TRACK 01 AUDIO TITLE "Patagonia" PERFORMER "Yoichiro Yoshikawa" INDEX 01 00:00:00FILE "02 - K 2.wav" WAVE TRACK 02 AUDIO TITLE "K 2" PERFORMER "Yoichiro Yoshikawa" INDEX 01 00:00:00FILE "03 - Aurora Veil.wav" WAVE TRACK 03 AUDIO TITLE "Aurora Veil" PERFORMER "Yoichiro Yoshikawa" INDEX 01 00:00:00 TRACK 04 AUDIO TITLE "Tassili N'Ajjer" PERFORMER "Yoichiro Yoshikawa" INDEX 00 04:06:72FILE "04 - Tassili N'Ajjer.wav" WAVE INDEX 01 00:00:00FILE "05 - A Dream of Aku-Aku.wav" WAVE TRACK 05 AUDIO TITLE "A Dream of Aku-Aku" PERFORMER "Yoichiro Yoshikawa" INDEX 01 00:00:00 TRACK 06 AUDIO TITLE "Keirin (Remix)" PERFORMER "Yoichiro Yoshikawa" INDEX 00 04:05:38FILE "06 - Keirin (Remix).wav" WAVE INDEX 01 00:00:00FILE "07 - Dryad at 4 A.M..wav" WAVE TRACK 07 AUDIO TITLE "Dryad at 4 A.M." PERFORMER "Yoichiro Yoshikawa" INDEX 01 00:00:00FILE "08 - Nettai Gunchou Zu I.wav" WAVE TRACK 08 AUDIO TITLE "Nettai Gunchou Zu I" PERFORMER "Yoichiro Yoshikawa" INDEX 01 00:00:00 TRACK 09 AUDIO TITLE "Nettai Gunchou Zu II" PERFORMER "Yoichiro Yoshikawa" INDEX 00 01:53:05FILE "09 - Nettai Gunchou Zu II.wav" WAVE INDEX 01 00:00:00 TRACK 10 AUDIO TITLE "Sahara" PERFORMER "Yoichiro Yoshikawa" INDEX 00 01:55:70FILE "10 - Sahara.wav" WAVE INDEX 01 00:00:00 TRACK 11 AUDIO TITLE "A Dream of Aku-Aku (Rep)" PERFORMER "Yoichiro Yoshikawa" INDEX 00 05:00:67FILE "11 - A Dream of Aku-Aku (Rep).wav" WAVE INDEX 01 00:00:00
[ru-zerkalo.org]_t_5735083
Torrent: Registered ·  [ 2019-06-01 22:53 ] ·  30c3519ed84158ecc3830653ec8b9a77fa57b694

16 KB

Status: checked
Completed: 0 times
Size: 187 MB
Rating: 
(Votes: 0)
Say thanks: 0  Thanks
 
Похожие темы
[Profile] [PM]
Display posts from previous:    
Reply to topic

The time now is: Today 07:42

All times are GMT + 7 Hours



You cannot post new topics in this forum
You cannot reply to topics in this forum
You cannot edit your posts in this forum
You cannot delete your posts in this forum
You cannot vote in polls in this forum
You cannot attach files in this forum
You can download files in this forum