Register · 
Username: Password:
 ·  Forgot password?

Yom "Back to the Klezmer" - Banlieues Bleues 2014 [2014, Klezmer / World Fusion / Ethnic Jazz, HDTV 1080i]

Reply to topic
DL-List and Torrent activity [Update пиров]
Size:  1.97 GB   |    Registered:  4 months 17 days   |    Completed:  0 times

Seeder not seen: Never

 
   
 
 
 
Author Message

rychkalov ®

Gender:

Longevity: 6 years

Posts: 18341

Post 05-Jun-2019 13:32

[Quote]

Yom
Back to the Klezmer
Banlieues Bleues 2014

-
Жанр: Klezmer / World Fusion / Ethnic Jazz
Продолжительность: 00:51:29
Год выпуска: 2014
Musicians:
Yom - clarinettes
Maxime Zampieri - tapan
Dario Ivkovic - accordéon
Benoît Giffard - trombone et tube
Track List:
- Al Chomotayich
- Mayn Yingele
- Fun Tashlikh
- Oriental Ora
- Sherele
- Eyli Ato
- Araber tanz medley
- Rising
Доп. информация:
Concert filmé le 19 mars 2014 à l'Odeon, à Tremblay en France
Огромная Благодарность - [url=profile.php?mode=viewprofile&u=15142747]ssegaster[/url] - за предоставленный материал ...
Спасибо большое !!!
Качество: HDTV
Разрешение видео/развертка: 1080i
Контейнер: TS
Видео кодек: H.264
Аудио кодек: MPEG
Видео: 4 959 Kbps, 1920*1080 (16:9), at 25.000 fps, AVC (Component) (High@L4.0) (CABAC / 4 Ref Frames)
Аудио: Russian, 256 Kbps, 48.0 KHz, 2 channels, MPEG Audio (Version 1) (Layer 2)

Отчёт MediaInfo

GeneralID : 1 (0x1)Complete name : C:\_mezzo live HD\mezzo live HD_Yom - Banlieues Bleues 2014.tsFormat : MPEG-TSFile size : 1.97 GiBDuration : 51mn 29sOverall bit rate mode : VariableOverall bit rate : 5 489 Kbps
VideoID : 203 (0xCB)Menu ID : 20103 (0x4E87)Format : AVCFormat/Info : Advanced Video CodecFormat profile : High@L4.0Format settings, CABAC : YesFormat settings, ReFrames : 4 framesFormat settings, GOP : M=4, N=28Codec ID : 27Duration : 51mn 29sBit rate : 4 959 KbpsWidth : 1 920 pixelsHeight : 1 080 pixelsDisplay aspect ratio : 16:9Frame rate : 25.000 fpsStandard : ComponentColor space : YUVChroma subsampling : 4:2:0Bit depth : 8 bitsScan type : InterlacedScan order : Top Field FirstBits/(Pixel*Frame) : 0.096Stream size : 1.78 GiB (90%)Color primaries : BT.709Transfer characteristics : BT.709Matrix coefficients : BT.709
AudioID : 303 (0x12F)Menu ID : 20103 (0x4E87)Format : MPEG AudioFormat version : Version 1Format profile : Layer 2Codec ID : 3Duration : 51mn 29sBit rate mode : ConstantBit rate : 256 KbpsChannel(s) : 2 channelsSampling rate : 48.0 KHzCompression mode : LossyStream size : 94.3 MiB (5%)Language : Russian
ы BANLIEUES BLEUES">

Скриншоты ы BANLIEUES BLEUES


2003 DAVE DOUGLAS SEPTET "Freak In"
2003 NEW-YORK. BOBIGNY
2004 SAINKHO NAMTCHYLAK
2004 4 WALLS
2005 AKI TAKASE Plays Fats Waller "Underground Railroad"
2005 OTOMO YOSHIHIDE - Music(s)
2005 YOHIMBE BROTHERS
2006 THE JUNGLE BLUE SUITE
2006 HORS CHANT
2008 IVA BITTOVA, DON BYRON, HAMID DRAKE "Improvisation"
2008 ERNST REIJSEGER "do you still ?"
2008 COSA BRAVA
2009 THE WORLD SAXOPHONE QUARTET
2011 VIJAY IYER, PRASANNA, NITIN MITTA "Tirtha"
2011 BILL FRISELL "The Disfarmer Project"
2011 LAÏKA "Nébuleuse"
2013 TOUMANI DIABATÉ & LE SYMMETRIC ORCHESTRA mpg
2014 YOM "Back to the Klezmer" HDTV 1080i
2015 DAVID MURRAY INFINITY QUARTET feat. SAUL WILLIAMS "Disruption" HDTV 1080i
2017 THE WILLIAM PARKER ORGAN QUARTET HDTV 1080i
[ru-zerkalo.org]_t_5738018
Torrent: Registered ·  [ 2019-06-05 13:26 ] ·  7caacf3f8ca566b3a1b3f8f3ebc36cb066660219

20 KB

Status: checked
Completed: 0 times
Size: 1.97 GB
Rating: 
(Votes: 0)
Say thanks: 0  Thanks
 
Похожие темы
[Profile] [PM]
Display posts from previous:    
Reply to topic

The time now is: Today 06:48

All times are GMT + 7 Hours



You cannot post new topics in this forum
You cannot reply to topics in this forum
You cannot edit your posts in this forum
You cannot delete your posts in this forum
You cannot vote in polls in this forum
You cannot attach files in this forum
You can download files in this forum