Register · 
Username: Password:
 ·  Forgot password?

(Surf-Rock) [WEB] Alex Bollard - Back to the Sixties - 1990, FLAC (tracks), lossless

Reply to topic
DL-List and Torrent activity [Update пиров]
Size:  383 MB   |    Registered:  4 months   |    Completed:  0 times

Seeder not seen: Never

 
   
 
 
 
Author Message

Andrew1225 ®

Gender:

Longevity: 6 years

Posts: 17178

Post 22-Jun-2019 23:30

[Quote]

Alex Bollard / Back to the Sixties
Жанр: Surf-Rock
Носитель: WEB
Год издания: 1990
Издатель (лейбл): CNR Music
Номер по каталогу: 8714221083286
Страна исполнителя (группы): The Netherlands
Продолжительность: 1:01:04
Аудиокодек: FLAC (*.flac)
Тип рипа: tracks
Источник: SMLoadr
Наличие сканов в содержимом раздачи: нет
Треклист:
1. Apache (3:04)
2. Shindig (2:58)
3. Happy Together (2:53)
4. Atlantis (3:07)
5. Walk, Don't Run (2:55)
6. Forty Miles of Bad Road (3:15)
7. Rebel-Rouser (3:37)
8. Peter Gunn (3:34)
9. Wonderful Land (2:55)
10. Hawaii Five-O (2:55)
11. Because They Are Young (3:05)
12. Guitar Tango (3:01)
13. Spinning Wheel (2:45)
14. Dance On (2:44)
15. F.B.I. (3:15)
16. Foot Tapper (2:52)
17. Time of the Season (3:12)
18. Kon Tiki (2:56)
19. C.I.A. (2:51)
20. Sunset Trail (3:01)

Динамический диапазон: DR13

foobar2000 1.0.3 / Dynamic Range Meter 1.1.1log date: 2019-06-19 06:02:50
--------------------------------------------------------------------------------Analyzed: Alex Bollard / Back to the 60's--------------------------------------------------------------------------------
DR Peak RMS Duration Track--------------------------------------------------------------------------------DR13 -0.42 dB -15.41 dB 3:05 01-ApacheDR13 -0.44 dB -14.83 dB 2:58 02-ShindigDR13 -0.34 dB -14.36 dB 2:53 03-Happy TogetherDR14 -0.82 dB -16.16 dB 3:07 04-AtlantisDR13 -0.09 dB -14.50 dB 2:56 05-Walk, Don't RunDR13 0.00 dB -15.22 dB 3:15 06-Forty Miles of Bad RoadDR14 0.00 dB -16.89 dB 3:38 07-Rebel-RouserDR14 0.00 dB -15.74 dB 3:34 08-Peter GunnDR13 0.00 dB -15.25 dB 2:55 09-Wonderful LandDR12 0.00 dB -13.93 dB 2:56 10-Hawaii Five-ODR12 0.00 dB -14.25 dB 3:05 11-Because They Are YoungDR14 0.00 dB -15.60 dB 3:02 12-Guitar TangoDR11 -0.29 dB -13.82 dB 2:45 13-Spinning WheelDR13 -0.64 dB -15.09 dB 2:44 14-Dance OnDR13 0.00 dB -15.72 dB 3:16 15-F.B.I.DR14 0.00 dB -15.77 dB 2:53 16-Foot TapperDR11 -0.87 dB -13.77 dB 3:13 17-Time of the SeasonDR13 -0.23 dB -15.00 dB 2:56 18-Kon TikiDR12 -0.07 dB -14.02 dB 2:51 19-C.I.A.DR11 -0.45 dB -13.02 dB 3:01 20-Sunset Trail--------------------------------------------------------------------------------
Number of tracks: 20Official DR value: DR13
Samplerate: 44100 HzChannels: 2Bits per sample: 16Bitrate: 902 kbpsCodec: FLAC================================================================================

Лог проверки качества

AUDIOCHECKER v2.0 beta (build 457) - by Dester - opdester@freemail.hu~~~~~~~~~~~~~~~~~~~~~~~~~~~~~~~~~~-=== DO NOT EDIT THIS FILE! ===-
Path: ...\Alex Bollard - [1990] Back to the 60's
01 -=- 01 - Apache.flac -=- CDDA (99%)02 -=- 02 - Shindig.flac -=- CDDA (99%)03 -=- 03 - Happy Together.flac -=- CDDA (99%)04 -=- 04 - Atlantis.flac -=- CDDA (100%)05 -=- 05 - Walk, Don't Run.flac -=- CDDA (100%)06 -=- 06 - Forty Miles of Bad Road.flac -=- CDDA (100%)07 -=- 07 - Rebel-Rouser.flac -=- CDDA (100%)08 -=- 08 - Peter Gunn.flac -=- CDDA (100%)09 -=- 09 - Wonderful Land.flac -=- CDDA (99%)10 -=- 10 - Hawaii Five-O.flac -=- CDDA (100%)11 -=- 11 - Because They Are Young.flac -=- CDDA (100%)12 -=- 12 - Guitar Tango.flac -=- CDDA (100%)13 -=- 13 - Spinning Wheel.flac -=- CDDA (99%)14 -=- 14 - Dance On.flac -=- CDDA (100%)15 -=- 15 - F.B.I..flac -=- CDDA (100%)16 -=- 16 - Foot Tapper.flac -=- CDDA (100%)17 -=- 17 - Time of the Season.flac -=- CDDA (100%)18 -=- 18 - Kon Tiki.flac -=- CDDA (100%)19 -=- 19 - C.I.A..flac -=- CDDA (100%)20 -=- 20 - Sunset Trail.flac -=- CDDA (99%)
Summary 99.70% CDDA
255376356
Produced by Alex Bollard
[ru-zerkalo.org]_t_5746278
Torrent: Registered ·  [ 2019-06-22 23:20 ] ·  e595a75160eaa74eaa93d2f984e1dfa8baa43cb6

9 KB

Status: checked
Completed: 0 times
Size: 383 MB
Rating: 
(Votes: 0)
Say thanks: 0  Thanks
 
Похожие темы
[Profile] [PM]
Display posts from previous:    
Reply to topic

The time now is: Today 06:43

All times are GMT + 7 Hours



You cannot post new topics in this forum
You cannot reply to topics in this forum
You cannot edit your posts in this forum
You cannot delete your posts in this forum
You cannot vote in polls in this forum
You cannot attach files in this forum
You can download files in this forum