Register · 
Username: Password:
 ·  Forgot password?

[DTSCD][UP] A-HA - East Of The Sun, West Of The Moon - 1990 (New wave, synthpop, pop rock, alternative rock)

Reply to topic
DL-List and Torrent activity [Update пиров]
Size:  463 MB   |    Registered:  6 months 28 days   |    Completed:  0 times

Seeder not seen: Never

 
   
 
 
 
Author Message

manic-manic ®

Gender:

Longevity: 6 years 3 months

Posts: 14192

Post 24-Jun-2019 21:34

[Quote]

A-HA - East Of The Sun, West Of The Moon DTS UPMix
Формат записи/Источник записи: [DTSCD][UP]
Наличие водяных знаков: Нет
Год издания/переиздания диска: 1990
Жанр: New wave, synthpop, pop rock, alternative rock
Издатель(лейбл): Warner Bros. Records Inc., A Time Warner Company
Наличие сканов в содержимом раздачи: Да (сканы)
Треклист:
Год 1990
01 - Crying In The Rain
02 - Early Morning
03 - I Call Your Name
04 - Slender Frame
05 - East Of The Sun
06 - Sycamore Leaves
07 - Waiting For Her
08 - Cold River
09 - The Way We Talk
10 - Rolling Thunder
11 - (Seemingly) Nonstop July
Контейнер: WAV(*.wav)
Тип рипа: tracks
Разрядность: 16/44,1
Формат: DTS
Количество каналов: 5.1
Битрейт аудио: 1411 kbps

DR-лог

foobar2000 1.4.2 / Dynamic Range Meter 1.1.1log date: 2019-06-12 21:26:02
--------------------------------------------------------------------------------Analyzed: ? / ?--------------------------------------------------------------------------------
DR Peak RMS Duration Track--------------------------------------------------------------------------------DR10 -0.53 dB -13.00 dB 4:23 ?-01 A-HA - Crying In The Rain DTSDR11 -0.55 dB -13.00 dB 2:58 ?-02 A-HA - Early Morning DTSDR10 -0.45 dB -13.00 dB 4:53 ?-03 A-HA - I Call Your Name DTSDR10 -0.46 dB -13.00 dB 3:44 ?-04 A-HA - Slender Frame DTSDR9 -0.52 dB -13.00 dB 4:46 ?-05 A-HA - East Of The Sun DTSDR10 -0.36 dB -13.00 dB 5:24 ?-06 A-HA - Sycamore Leaves DTSDR10 -0.33 dB -13.00 dB 4:49 ?-07 A-HA - Waiting For Her DTSDR11 -0.51 dB -13.00 dB 4:40 ?-08 A-HA - Cold River DTSDR10 -0.48 dB -13.00 dB 1:32 ?-09 A-HA - The Way We Talk DTSDR9 -0.53 dB -13.00 dB 5:43 ?-10 A-HA - Rolling Thunder DTSDR9 -0.43 dB -13.00 dB 2:53 ?-11 A-HA - (Seemingly) Nonstop July DTS--------------------------------------------------------------------------------
Number of tracks: 11Official DR value: DR10
Samplerate: 44100 HzChannels: 6Bits per sample: 16Bitrate: 1411 kbpsCodec: DTS================================================================================
Источник (релизер): Оригинальный CD
Номер по каталогу: 7599 - 26314-2
Доп. информация: DJ S.A.W. DTS Upmix
Метод получения апмикса:
ручное выделение фазо-частотных фрагментов фонограммы с помощью функции CCE Adobe Audition
мультиканальный мастеринг – Аdobe Audition (встроенными эффектами и плагинами Waves, iZotope,
Starplugs и т.п.)
[ru-zerkalo.org]_t_4871078
Torrent: Registered ·  [ 2019-06-24 21:32 ] ·  a80692451ebe13f18c1ba3c395821c2c187b2028

20 KB

Status: checked
Completed: 0 times
Size: 463 MB
Rating: 
(Votes: 0)
Say thanks: 0  Thanks
 
Похожие темы
[Profile] [PM]
Display posts from previous:    
Reply to topic

The time now is: Today 19:18

All times are GMT + 7 Hours



You cannot post new topics in this forum
You cannot reply to topics in this forum
You cannot edit your posts in this forum
You cannot delete your posts in this forum
You cannot vote in polls in this forum
You cannot attach files in this forum
You can download files in this forum