Register · 
Username: Password:
 ·  Forgot password?

Smashing Pumpkins • Rock Am Ring [2019, Alternative Rock, HDTV, 720p]

Reply to topic
DL-List and Torrent activity [Update пиров]
Size:  3.08 GB   |    Registered:  7 months 22 days   |    Completed:  1 time

Seeder not seen: 27 days

 
   
 
 
 
Author Message

Nestor_13 ®

Gender:

Longevity: 6 years 4 months

Posts: 21727

Post 24-Jun-2019 21:34

[Quote]


Smashing Pumpkins


Жанр: Alternative Rock
Продолжительность: 00:39:35
Год выпуска: 2019
Качество: HDTV
Разрешение видео/развертка: 720p
Контейнер: TS
Видео кодек: H.264
Аудио кодек: AC3
Видео: MPEG4 Video (H264) 1280x720 50fps 10.1 Mb/s
Аудио: Dolby AC3 48000Hz stereo 448kbps

Треклист

Siva
Zero
Disarm
Superchrist
The Everlasting Gaze
Ava Adore
Cherub Rock
Tonight, Tonight

Отчёт MediaInfo / BDInfo

GeneralID : 1 (0x1)Complete name : F:\Smashing Pumpkins - Rock Am Ring 2019.tsFormat : MPEG-TSFile size : 3.08 GiBDuration : 39 min 35 sOverall bit rate mode : VariableOverall bit rate : 11.1 Mb/s
VideoID : 256 (0x100)Menu ID : 1 (0x1)Format : AVCFormat/Info : Advanced Video CodecFormat profile : High@L4Format settings : CABAC / 4 Ref FramesFormat settings, CABAC : YesFormat settings, ReFrames : 4 framesFormat settings, GOP : M=3, N=15Codec ID : 27Duration : 39 min 35 sBit rate : 10.1 Mb/sWidth : 1 280 pixelsHeight : 720 pixelsDisplay aspect ratio : 16:9Frame rate : 50.000 FPSStandard : ComponentColor space : YUVChroma subsampling : 4:2:0Bit depth : 8 bitsScan type : ProgressiveBits/(Pixel*Frame) : 0.220Stream size : 2.80 GiB (91%)Color range : LimitedColor primaries : BT.709Transfer characteristics : BT.709Matrix coefficients : BT.709
AudioID : 257 (0x101)Menu ID : 1 (0x1)Format : AC-3Format/Info : Audio Coding 3Commercial name : Dolby DigitalCodec ID : 129Duration : 39 min 35 sBit rate mode : ConstantBit rate : 448 kb/sChannel(s) : 2 channelsChannel layout : L RSampling rate : 48.0 kHzFrame rate : 31.250 FPS (1536 SPF)Bit depth : 16 bitsCompression mode : LossyDelay relative to video : 4 msStream size : 127 MiB (4%)Language : EnglishService kind : Complete Main
Мои раздачи ®">

Скриншоты Мои раздачи ®


[url=tracker.php?rid=9539252]http:///forum/tracker.php?rid=9539252[/url]
[ru-zerkalo.org]_t_5742478
Torrent: Registered ·  [ 2019-06-24 21:32 ] ·  4ce4950c28172a305bb83d8999a57cfffd14a5ed

16 KB

Status: checked
Completed: 1 times
Size: 3.08 GB
Rating: 
(Votes: 0)
Say thanks: 0  Thanks
 
Похожие темы
[Profile] [PM]
Display posts from previous:    
Reply to topic

The time now is: Today 15:05

All times are GMT + 7 Hours



You cannot post new topics in this forum
You cannot reply to topics in this forum
You cannot edit your posts in this forum
You cannot delete your posts in this forum
You cannot vote in polls in this forum
You cannot attach files in this forum
You can download files in this forum