Register · 
Username: Password:
 ·  Forgot password?

Prophets Of Rage • Rock am Ring [2017, Alternative Metal, Rap Metal, HDTV, 1080i]

Reply to topic
DL-List and Torrent activity [Update пиров]
Size:  2.27 GB   |    Registered:  7 months 26 days   |    Completed:  0 times

Seeder not seen: Never

 
   
 
 
 
Author Message

Nestor_13 ®

Gender:

Longevity: 6 years 4 months

Posts: 21727

Post 24-Jun-2019 21:34

[Quote]


Prophets Of Rage



Жанр: Alternative Metal, Rap Metal
Продолжительность: 00:40:52
Год выпуска: 2017
Качество: HDTV
Разрешение видео/развертка: 1080i
Контейнер: TS
Видео кодек: H.264
Аудио кодек: AC3
Видео: MPEG4 Video (H264) 1920x1080 25fps 6 902 kb/s
Аудио 1: Dolby AC3 48000Hz stereo 448kbps
Аудио 2: Dolby AC3 48000Hz stereo 192kbps

Треклист

01. Hip Hop medley:
Hand On The Pump
Cant Truss It
Insane In The Brain
Bring The Noise
Aint Goin Out Like THat
Welcome To The Terrordrome
Jump Around
02. Sleep Now In The Fire (Rage Against the Machine cover) (+"Cochise" outro)
03. Like A Stone (Audioslave cover) (with Serj Tankian)
04. Bullet In The Head (Rage Against the Machine cover)
05. Unfuck The World
06. Bulls on Parade (Rage Against the Machine cover)
07. Killing in the Name (Rage Against the Machine cover)

Отчёт MediaInfo / BDInfo

GeneralID : 1 (0x1)Complete name : F:\Prophets Of Rage - Rock am Ring 2017.tsFormat : MPEG-TSFile size : 2.27 GiBDuration : 40 min 52 sOverall bit rate mode : VariableOverall bit rate : 7 941 kb/s
VideoID : 1445 (0x5A5)Menu ID : 7845 (0x1EA5)Format : AVCFormat/Info : Advanced Video CodecFormat profile : Main@L4Format settings : CABAC / 4 Ref FramesFormat settings, CABAC : YesFormat settings, ReFrames : 4 framesCodec ID : 27Duration : 40 min 52 sBit rate : 6 902 kb/sWidth : 1 920 pixelsHeight : 1 080 pixelsDisplay aspect ratio : 16:9Frame rate : 25.000 FPSColor space : YUVChroma subsampling : 4:2:0Bit depth : 8 bitsScan type : InterlacedScan type, store method : Separated fieldsScan order : Top Field FirstBits/(Pixel*Frame) : 0.133Stream size : 1.97 GiB (87%)Color range : LimitedColor primaries : BT.709Transfer characteristics : BT.709Matrix coefficients : BT.709
Audio #1ID : 3534 (0xDCE)Menu ID : 7845 (0x1EA5)Format : AC-3Format/Info : Audio Coding 3Commercial name : Dolby DigitalCodec ID : 6Duration : 40 min 52 sBit rate mode : ConstantBit rate : 448 kb/sChannel(s) : 2 channelsChannel layout : L RSampling rate : 48.0 kHzFrame rate : 31.250 FPS (1536 SPF)Bit depth : 16 bitsCompression mode : LossyStream size : 131 MiB (6%)Language : EnglishService kind : Complete Main
Audio #2ID : 3535 (0xDCF)Menu ID : 7845 (0x1EA5)Format : AC-3Format/Info : Audio Coding 3Commercial name : Dolby DigitalCodec ID : 6Duration : 40 min 52 sBit rate mode : ConstantBit rate : 192 kb/sChannel(s) : 2 channelsChannel layout : L RSampling rate : 48.0 kHzFrame rate : 31.250 FPS (1536 SPF)Bit depth : 16 bitsCompression mode : LossyStream size : 56.1 MiB (2%)Language : DutchService kind : Complete Main
Мои раздачи ®">

Скриншоты Мои раздачи ®


[url=tracker.php?rid=9539252]http:///forum/tracker.php?rid=9539252[/url]
[ru-zerkalo.org]_t_5740694
Torrent: Registered ·  [ 2019-06-24 21:32 ] ·  130f073fbc14b5c1bec7bb6362e84e2506271d7d

12 KB

Status: checked
Completed: 0 times
Size: 2.27 GB
Rating: 
(Votes: 0)
Say thanks: 0  Thanks
 
Похожие темы
[Profile] [PM]
Display posts from previous:    
Reply to topic

The time now is: Today 13:04

All times are GMT + 7 Hours



You cannot post new topics in this forum
You cannot reply to topics in this forum
You cannot edit your posts in this forum
You cannot delete your posts in this forum
You cannot vote in polls in this forum
You cannot attach files in this forum
You can download files in this forum