Register · 
Username: Password:
 ·  Forgot password?

(Psychedelic Rock, Jazz Rock, Avant, Experimental Rock) [CD] Wazoo - Wazoo - 1970 (2006, World In Sound), FLAC (tracks+.cue), lossless

Reply to topic
DL-List and Torrent activity [Update пиров]
Size:  374 MB   |    Registered:  3 months 22 days   |    Completed:  0 times

Seeder not seen: Never

 
   
 
 
 
Author Message

kadSM ®

Gender:

Longevity: 6 years

Posts: 18049

Post 25-Jun-2019 03:06

[Quote]

--Wazoo - Wazoo - 1970 (2006, World In Sound)-- Крутан Шестидесятых (old-rock.info): Я не могу сказать чего нет в этой работе! Есть практически всё: пространные джазовые духовые под психоделический триповый органчик, модулированные нойзовые полотна a-ля White Noise, возникающие ассоциации с раннеяпонскими "краут-джазами" под виолончель и колокольца, протопроговый элемент, свободная структура композиций, скрежет и вопли, грация и ирония. Люди из Детройта. В оформлении обложки принимал участие некто John Williams, впоследствие сотрудничавший с Заппой. И по одной из версий предложивший ему название Grand Wazoo (в честь нашей грандиозной задницы!).
Жанр: Psychedelic Rock, Jazz Rock, Avant, Experimental Rock
Носитель: CD (Album, Reissue)
Страна-производитель диска (релиза): Germany
Год издания оригинала: 1970
Год переиздания: 2006
Издатель (лейбл): World In Sound
Номер по каталогу: WIS-1033
Страна исполнителя (группы) : US
Аудио кодек: FLAC (*.flac)
Тип рипа: (tracks + .cue)
Битрейт аудио: lossless
Наличие сканов в содержимом раздачи: full scans, 300 dpi
Продолжительность: 48:42
Источник (релизер): из коллециии pr0gger'a, его рип, с разрешения релизера
Трэклист:
1 The Beginning / Grand Ol' Land 8:30
2 Slip On 4:50
3 The Way I See It 11:18
4 Sleep On 7:33
5 Concert 1:40
6 Arnie Funny Far Fackor 5:00
7 BH Man 9:47
8 Grand Ol' Land

ЛогиЛог создания рипа

Exact Audio Copy V0.99 prebeta 4 from 23. January 2008
EAC extraction logfile from 23. January 2010, 23:05
Wazoo / Wazoo
Used drive : ASUS DRW-2014S1 Adapter: 1 ID: 0
Read mode : SecureUtilize accurate stream : YesDefeat audio cache : YesMake use of C2 pointers : No
Read offset correction : 6Overread into Lead-In and Lead-Out : NoFill up missing offset samples with silence : YesDelete leading and trailing silent blocks : NoNull samples used in CRC calculations : YesUsed interface : Installed external ASPI interfaceGap handling : Appended to previous track
Used output format : User Defined EncoderSelected bitrate : 768 kBit/sQuality : HighAdd ID3 tag : NoCommand line compressor : C:\Program Files\Exact Audio Copy\FLAC\FLAC.EXEAdditional command line options : -6 -V -T "ARTIST=%a" -T "TITLE=%t" -T "ALBUM=%g" -T "DATE=%y" -T "TRACKNUMBER=%n" -T "GENRE=%m" -T "COMMENT=%e" %s -o %d
TOC of the extracted CD
Track | Start | Length | Start sector | End sector --------------------------------------------------------- 1 | 0:00.00 | 1:14.52 | 0 | 5601 2 | 1:14.52 | 4:50.63 | 5602 | 27414 3 | 6:05.40 | 11:21.69 | 27415 | 78558 4 | 17:27.34 | 7:31.37 | 78559 | 112420 5 | 24:58.71 | 1:39.47 | 112421 | 119892 6 | 26:38.43 | 5:03.06 | 119893 | 142623 7 | 31:41.49 | 9:38.74 | 142624 | 186047 8 | 41:20.48 | 7:21.27 | 186048 | 219149
Track 1
Filename C:\byPr0gger\Wazoo - st (1970 - 2006, World In Sound, WIS-1033)[FLAC]\01. The Beginning.wav
Pre-gap length 0:00:02.00
Peak level 80.6 % Track quality 99.8 % Test CRC 28F44A84 Copy CRC 28F44A84 Track not present in AccurateRip database Copy OK
Track 2
Filename C:\byPr0gger\Wazoo - st (1970 - 2006, World In Sound, WIS-1033)[FLAC]\02. Slip On.wav
Pre-gap length 0:00:02.00
Peak level 94.4 % Track quality 100.0 % Test CRC DE2B1410 Copy CRC DE2B1410 Track not present in AccurateRip database Copy OK
Track 3
Filename C:\byPr0gger\Wazoo - st (1970 - 2006, World In Sound, WIS-1033)[FLAC]\03. The Way I See It.wav
Peak level 94.5 % Track quality 100.0 % Test CRC 78CD09E6 Copy CRC 78CD09E6 Track not present in AccurateRip database Copy OK
Track 4
Filename C:\byPr0gger\Wazoo - st (1970 - 2006, World In Sound, WIS-1033)[FLAC]\04. Sleep On.wav
Pre-gap length 0:00:02.00
Peak level 94.4 % Track quality 100.0 % Test CRC 55E3F5CC Copy CRC 55E3F5CC Track not present in AccurateRip database Copy OK
Track 5
Filename C:\byPr0gger\Wazoo - st (1970 - 2006, World In Sound, WIS-1033)[FLAC]\05. Concert.wav
Peak level 94.4 % Track quality 99.8 % Test CRC 9BE0B596 Copy CRC 9BE0B596 Track not present in AccurateRip database Copy OK
Track 6
Filename C:\byPr0gger\Wazoo - st (1970 - 2006, World In Sound, WIS-1033)[FLAC]\06. Arnie Funny Far Fackor.wav
Peak level 91.1 % Track quality 100.0 % Test CRC 4094E9BD Copy CRC 4094E9BD Track not present in AccurateRip database Copy OK
Track 7
Filename C:\byPr0gger\Wazoo - st (1970 - 2006, World In Sound, WIS-1033)[FLAC]\07. BH Man.wav
Peak level 94.4 % Track quality 100.0 % Test CRC 725A151B Copy CRC 725A151B Track not present in AccurateRip database Copy OK
Track 8
Filename C:\byPr0gger\Wazoo - st (1970 - 2006, World In Sound, WIS-1033)[FLAC]\08. Grand Ol' Land.wav
Peak level 94.4 % Track quality 100.0 % Test CRC 4487385A Copy CRC 4487385A Track not present in AccurateRip database Copy OK
None of the tracks are present in the AccurateRip database
No errors occurred
End of status report

Содержание индексной карты (.CUE):

REM GENRE "Progressive Rock"REM DATE 1970REM DISCID 570B6A08REM COMMENT "ExactAudioCopy v0.99pb4"PERFORMER "Wazoo"TITLE "Wazoo"FILE "01. The Beginning.wav" WAVE TRACK 01 AUDIO TITLE "The Beginning" PERFORMER "Wazoo" INDEX 01 00:00:00 TRACK 02 AUDIO TITLE "Slip On" PERFORMER "Wazoo" INDEX 00 01:12:52FILE "02. Slip On.wav" WAVE INDEX 01 00:00:00FILE "03. The Way I See It.wav" WAVE TRACK 03 AUDIO TITLE "The Way I See It" PERFORMER "Wazoo" INDEX 01 00:00:00 TRACK 04 AUDIO TITLE "Sleep On" PERFORMER "Wazoo" INDEX 00 11:19:69FILE "04. Sleep On.wav" WAVE INDEX 01 00:00:00FILE "05. Concert.wav" WAVE TRACK 05 AUDIO TITLE "Concert" PERFORMER "Wazoo" INDEX 01 00:00:00FILE "06. Arnie Funny Far Fackor.wav" WAVE TRACK 06 AUDIO TITLE "Arnie Funny Far Fackor" PERFORMER "Wazoo" INDEX 01 00:00:00FILE "07. BH Man.wav" WAVE TRACK 07 AUDIO TITLE "BH Man" PERFORMER "Wazoo" INDEX 01 00:00:00FILE "08. Grand Ol' Land.wav" WAVE TRACK 08 AUDIO TITLE "Grand Ol' Land" PERFORMER "Wazoo" INDEX 01 00:00:00

Лог проверки качества

4091726585 13175948 01. The Beginning.wav3376291592 51304220 02. Slip On.wav2105628812 120290732 03. The Way I See It.wav137476401 79643468 04. Sleep On.wav257741568 17574188 05. Concert.wav4030893122 53463356 06. Arnie Funny Far Fackor.wav2826697573 102133292 07. BH Man.wav3293701247 77855948 08. Grand Ol' Land.wav
auCDtect: CD records authenticity detector, version 0.8.2Copyright (c) 2004 Oleg Berngardt. All rights reserved.Copyright (c) 2004 Alexander Djourik. All rights reserved.------------------------------------------------------------Processing file: [01. The Beginning.wav]
------------------------------------------------------------This track looks like CDDA with probability 100%
------------------------------------------------------------Processing file: [02. Slip On.wav]
------------------------------------------------------------This track looks like CDDA with probability 100%
------------------------------------------------------------Processing file: [03. The Way I See It.wav]
------------------------------------------------------------This track looks like CDDA with probability 100%
------------------------------------------------------------Processing file: [04. Sleep On.wav]
------------------------------------------------------------This track looks like CDDA with probability 100%
------------------------------------------------------------Processing file: [05. Concert.wav]
------------------------------------------------------------This track looks like CDDA with probability 42%
------------------------------------------------------------Processing file: [06. Arnie Funny Far Fackor.wav]
------------------------------------------------------------This track looks like CDDA with probability 100%
------------------------------------------------------------Processing file: [07. BH Man.wav]
------------------------------------------------------------This track looks like CDDA with probability 100%
------------------------------------------------------------Processing file: [08. Grand Ol' Land.wav]
------------------------------------------------------------This track looks like CDDA with probability 100%
------------------------------------------------------------Final Conclusion:------------------------------------------------------------These tracks looks like CDDA with probability 100%

Лог CUETools*.accurip

[CUETools log; Date: 6/19/2019 4:06:10 PM; Version: 2.1.5][CTDB TOCID: b3cO.nihN2M2.4mnj.tZP9Hdxho-] disk not present in database.[AccurateRip ID: 000d9b40-005dd09b-570b6a08] found.Track [ CRC | V2 ] Status 01 [b407414f|bbfb2b3e] (1+0/1) Accurately ripped 02 [71e99baa|123cd807] (1+0/1) Accurately ripped 03 [48cbf1d9|58b35f2c] (1+0/1) Accurately ripped 04 [b6098611|6d161b44] (1+0/1) Accurately ripped 05 [5f1579e2|12d73545] (1+0/1) Accurately ripped 06 [c0626661|29166a67] (1+0/1) Accurately ripped 07 [32010947|b5d4de36] (1+0/1) Accurately ripped 08 [8142b146|4eae3958] (1+0/1) Accurately ripped
Track Peak [ CRC32 ] [W/O NULL] [ LOG ] -- 94.5 [574A3545] [59C004EB] 01 80.6 [28F44A84] [808FDC37] CRC32 02 94.4 [DE2B1410] [ADC1BEB9] CRC32 03 94.5 [78CD09E6] [2C04BCC0] CRC32 04 94.4 [55E3F5CC] [64DC1A75] CRC32 05 94.4 [9BE0B596] [18E4BC1D] CRC32 06 91.1 [4094E9BD] [895F966A] CRC32 07 94.4 [725A151B] [13529519] CRC32 08 94.4 [4487385A] [52BCAAB6] CRC32

*.toc

Track | Start | Length | Start sector | End sector --------------------------------------------------------- 1 | 0:00.00 | 1:14.52 | 0 | 5601 2 | 1:14.52 | 4:50.63 | 5602 | 27414 3 | 6:05.40 | 11:21.69 | 27415 | 78558 4 | 17:27.34 | 7:31.37 | 78559 | 112420 5 | 24:58.71 | 1:39.47 | 112421 | 119892 6 | 26:38.43 | 5:03.06 | 119893 | 142623 7 | 31:41.49 | 9:38.74 | 142624 | 186047 8 | 41:20.48 | 7:21.27 | 186048 | 219149

Замер динамического диапазона

foobar2000 1.3.10 / Замер динамического диапазона (DR) 1.1.1Дата отчёта: 2019-06-19 19:50:56
--------------------------------------------------------------------------------Анализ: Wazoo / Wazoo--------------------------------------------------------------------------------
DR Пики RMS Продолжительность трека--------------------------------------------------------------------------------DR11 -1.87 дБ -16.04 дБ 1:15 01-The BeginningDR9 -0.50 дБ -12.37 дБ 4:51 02-Slip OnDR9 -0.49 дБ -13.60 дБ 11:22 03-The Way I See ItDR10 -0.50 дБ -12.46 дБ 7:31 04-Sleep OnDR12 -0.50 дБ -15.67 дБ 1:40 05-ConcertDR9 -0.80 дБ -12.50 дБ 5:03 06-Arnie Funny Far FackorDR11 -0.50 дБ -13.24 дБ 9:39 07-BH ManDR9 -0.50 дБ -11.62 дБ 7:21 08-Grand Ol' Land--------------------------------------------------------------------------------
Количество треков: 8Реальные значения DR: DR10
Частота: 44100 ГцКаналов: 2Разрядность: 16Битрейт: 914 кбит/сКодек: FLAC================================================================================
-

Back

Диск

Состав

George - Sax, Backup vocals
Rocky - Lead vocal, Percussion
John Frega - Bass, Backup vocals
Vince Scalabrino - Drums, Backup vocals
Jim Finnan - Keyboards, Trumpet, Cello, Backup vocals
Felix - Guitar and Lead Vocal on track 3
-Если нет сидов - пришлите мне ЛС
[ru-zerkalo.org]_t_5748293
Torrent: Registered ·  [ 2019-06-25 03:06 ] ·  b8410976f669e458aa5cf340c78bee8ca6eec262

16 KB

Status: checked
Completed: 0 times
Size: 374 MB
Rating: 
(Votes: 0)
Say thanks: 0  Thanks
 
Похожие темы
[Profile] [PM]
Display posts from previous:    
Reply to topic

The time now is: Today 23:14

All times are GMT + 7 Hours



You cannot post new topics in this forum
You cannot reply to topics in this forum
You cannot edit your posts in this forum
You cannot delete your posts in this forum
You cannot vote in polls in this forum
You cannot attach files in this forum
You can download files in this forum