Register · 
Username: Password:
 ·  Forgot password?

(Psychedelic / Progressive Rock) [CD] El Círculo de Willis [El Circulo de Willis] - [2 albums] 2012-2015, FLAC (tracks+.cue), lossless

Reply to topic
DL-List and Torrent activity [Update пиров]
Size:  882 MB   |    Registered:  3 months 22 days   |    Completed:  0 times

Seeder not seen: Never

 
   
 
 
 
Author Message

kadSM ®

Gender:

Longevity: 6 years

Posts: 18049

Post 25-Jun-2019 06:13

[Quote]


[2 albums] (2012-2015)
Жанр: Psychedelic | Progressive Rock Годы издания дисков: 2012, 2015 | Страна: Spain
Label: SpiralFusion Тип рипа: tracks+.cue | Битрейт аудио: lossless | Источник: свои рипы
Продолжительность: 52:57 | 35:52

2012 - Fábulas [Fabulas] [SpiralFusion | Bl-343-2012]

Треклист:
1. Tú No Sabes Lo Que Has Hecho. 7:34
2. El Banquete Canibal. 7:50
3. La Historia De Los Trispis. 13:15
4. La Batalla De Los Soldaditos De Plomo. 7:00
5. Endodoncia. 8:23
6. El Turbante Sin Cabeza. 8:51
Total Time: 52:57
Musicians:
- Ivan Pozuelo "Guevo" / bateria
- Sergio Segovia "Niño" / guitarra, piano
- Ganzalo Solas / flauta travesera, saxo tenor
- Tomãs Fernandez / bajo, sintes

EAC log

Exact Audio Copy V1.0 beta 4 from 7. December 2014
EAC extraction logfile from 22. June 2019, 1:23
El Círculo de Willis / Fábulas
Used drive : ATAPI iHAS124 E Adapter: 1 ID: 0
Read mode : SecureUtilize accurate stream : YesDefeat audio cache : YesMake use of C2 pointers : No
Read offset correction : 6Overread into Lead-In and Lead-Out : NoFill up missing offset samples with silence : YesDelete leading and trailing silent blocks : NoNull samples used in CRC calculations : YesUsed interface : Native Win32 interface for Win NT & 2000Gap handling : Appended to previous track
Used output format : Internal WAV RoutinesSample format : 44.100 Hz; 16 Bit; Stereo
TOC of the extracted CD
Track | Start | Length | Start sector | End sector --------------------------------------------------------- 1 | 0:00.00 | 7:34.04 | 0 | 34053 2 | 7:34.04 | 7:50.42 | 34054 | 69345 3 | 15:24.46 | 13:15.74 | 69346 | 129044 4 | 28:40.45 | 7:00.64 | 129045 | 160608 5 | 35:41.34 | 8:23.60 | 160609 | 198393 6 | 44:05.19 | 8:51.64 | 198394 | 238282
Track 1
Filename C:\_EAC\01. Tú No Sabes Lo Que Has Hecho.wav
Pre-gap length 0:00:02.00
Peak level 100.0 % Extraction speed 5.7 X Track quality 100.0 % Test CRC 465552C8 Copy CRC 465552C8 Track not present in AccurateRip database Copy OK
Track 2
Filename C:\_EAC\02. El Banquete Canibal.wav
Pre-gap length 0:00:04.00
Peak level 100.0 % Extraction speed 6.8 X Track quality 100.0 % Test CRC 889E626F Copy CRC 889E626F Track not present in AccurateRip database Copy OK
Track 3
Filename C:\_EAC\03. La Historia De Los Trispis.wav
Peak level 100.0 % Extraction speed 8.2 X Track quality 100.0 % Test CRC B6D79841 Copy CRC B6D79841 Track not present in AccurateRip database Copy OK
Track 4
Filename C:\_EAC\04. La Batalla De Los Soldaditos De Plomo.wav
Pre-gap length 0:00:06.00
Peak level 100.0 % Extraction speed 8.8 X Track quality 100.0 % Test CRC 692E4FEC Copy CRC 692E4FEC Track not present in AccurateRip database Copy OK
Track 5
Filename C:\_EAC\05. Endodoncia.wav
Pre-gap length 0:00:02.00
Peak level 100.0 % Extraction speed 9.6 X Track quality 100.0 % Test CRC 489861E8 Copy CRC 489861E8 Track not present in AccurateRip database Copy OK
Track 6
Filename C:\_EAC\06. El Turbante Sin Cabeza.wav
Pre-gap length 0:00:05.00
Peak level 100.0 % Extraction speed 9.5 X Track quality 99.9 % Test CRC D0FAE98B Copy CRC D0FAE98B Track not present in AccurateRip database Copy OK
None of the tracks are present in the AccurateRip database
No errors occurred
End of status report
---- CUETools DB Plugin V2.1.4
[CTDB TOCID: Ttzqcd8_IlEXsN0HqRTJHTwlIx8-] foundSubmit result: Запрос был прерван: Запрос отменен.Track | CTDB Status 1 | (1/1) Accurately ripped 2 | (1/1) Accurately ripped 3 | (1/1) Accurately ripped 4 | (1/1) Accurately ripped 5 | (1/1) Accurately ripped 6 | (1/1) Accurately ripped
==== Log checksum 4019DF35178EA5BF114B177C12E5031FA9DECBC093E9F6492B0F31CC5861A925 ====

CUE sheet

REM GENRE PsychedelicREM DATE 2012REM DISCID 4B0C6906REM COMMENT "ExactAudioCopy v1.0b4"PERFORMER "El Círculo de Willis"TITLE "Fábulas"FILE "01. Tú No Sabes Lo Que Has Hecho.wav" WAVE TRACK 01 AUDIO TITLE "Tú No Sabes Lo Que Has Hecho" PERFORMER "El Círculo de Willis" INDEX 01 00:00:00 TRACK 02 AUDIO TITLE "El Banquete Canibal" PERFORMER "El Círculo de Willis" INDEX 00 07:30:04FILE "02. El Banquete Canibal.wav" WAVE INDEX 01 00:00:00FILE "03. La Historia De Los Trispis.wav" WAVE TRACK 03 AUDIO TITLE "La Historia De Los Trispis" PERFORMER "El Círculo de Willis" INDEX 01 00:00:00 TRACK 04 AUDIO TITLE "La Batalla De Los Soldaditos De Plomo" PERFORMER "El Círculo de Willis" INDEX 00 13:09:74FILE "04. La Batalla De Los Soldaditos De Plomo.wav" WAVE INDEX 01 00:00:00 TRACK 05 AUDIO TITLE "Endodoncia" PERFORMER "El Círculo de Willis" INDEX 00 06:58:64FILE "05. Endodoncia.wav" WAVE INDEX 01 00:00:00 TRACK 06 AUDIO TITLE "El Turbante Sin Cabeza" PERFORMER "El Círculo de Willis" INDEX 00 08:18:60FILE "06. El Turbante Sin Cabeza.wav" WAVE INDEX 01 00:00:00

Лог проверки качества

-----------------------
DON'T MODIFY THIS FILE
-----------------------
PERFORMER: auCDtect Task Manager, ver. 1.6.0 RC1 build 1.6.0.1Copyright (c) 2008-2010 y-soft. All rights reservedhttp://y-soft.org
ANALYZER: auCDtect: CD records authenticity detector, version 0.8.2Copyright (c) 2004 Oleg Berngardt. All rights reserved.Copyright (c) 2004 Alexander Djourik. All rights reserved.
FILE: 01. Tú No Sabes Lo Que Has Hecho.flac Size: 54705262 Hash: 4AA8012C61D828AEA181BA265AB7DB3F Accuracy: -m0 Conclusion: CDDA 100% Signature: CEB16633FDB07A4948469465F8C68602AA08937AFILE: 02. El Banquete Canibal.flac Size: 52749557 Hash: 200C90C3DFEA83664A1A520B8C74E3C6 Accuracy: -m0 Conclusion: CDDA 100% Signature: 573A101668C6EA0B2572AD41ED2CCE2988F5E039FILE: 03. La Historia De Los Trispis.flac Size: 88421969 Hash: B10D038A3E2E5227B7D1615EE69C3F1F Accuracy: -m0 Conclusion: CDDA 100% Signature: 80D73E37CFEACD136A6D0B1D9DE6482416193BECFILE: 04. La Batalla De Los Soldaditos De Plomo.flac Size: 50900002 Hash: A2BE0C906FD1FE2F8ADADBB4B00F1628 Accuracy: -m0 Conclusion: CDDA 100% Signature: 707FD6D9ABC39DB33488E4019F7E64B5FCC41530FILE: 05. Endodoncia.flac Size: 62106150 Hash: E12DD049559EDCAD1D037A8303F67370 Accuracy: -m0 Conclusion: CDDA 100% Signature: E563241D6B1DC837AB8E22AF3CC6F3DFC18E7228FILE: 06. El Turbante Sin Cabeza.flac Size: 63999704 Hash: 70DDE39A20BD97D423774003A1C2ADB3 Accuracy: -m0 Conclusion: CDDA 100% Signature: 0E8B21487F40E4A118DF085405F602B431861A52

DRM.log

foobar2000 1.3.8 / Dynamic Range Meter 1.1.1log date: 2019-06-22 01:44:38
--------------------------------------------------------------------------------Analyzed: El Círculo de Willis / Fábulas--------------------------------------------------------------------------------
DR Peak RMS Duration Track--------------------------------------------------------------------------------DR12 0.00 dB -13.45 dB 7:34 01-Tú No Sabes Lo Que Has HechoDR9 0.00 dB -11.69 dB 7:51 02-El Banquete CanibalDR10 0.00 dB -11.92 dB 13:16 03-La Historia De Los TrispisDR10 0.00 dB -11.56 dB 7:01 04-La Batalla De Los Soldaditos De PlomoDR11 0.00 dB -12.00 dB 8:24 05-EndodonciaDR11 0.00 dB -12.34 dB 8:52 06-El Turbante Sin Cabeza--------------------------------------------------------------------------------
Number of tracks: 6Official DR value: DR10
Samplerate: 44100 HzChannels: 2Bits per sample: 16Bitrate: 961 kbpsCodec: FLAC================================================================================

2015 - Retales [SpiralFusion | M-6333-2015]

Треклист:
1. Puerta 186. 19:01
2. El hombre entre la multitud. 6:04
3. Fractura. 2:45
4. Nube 9. 8:02
Total Time: 35:52
Musicians:
- Ivan Pozuelo del Castillo / bateria, percusiones
- Tomas Fernandez Giron / bajo, sintetizadores
- Sergio Segovia Hoya / guitarra, piano, Hammond
- Gonzalo Solas Fernandez / flauta travesera, saxo tenor, Ewi
Featuring:
- Alvaro Espinosa / guitarras adicionales (2), Fractura (4)

EAC log

Exact Audio Copy V1.0 beta 4 from 7. December 2014
EAC extraction logfile from 24. June 2019, 10:01
El Círculo de Willis / Retales
Used drive : ATAPI iHAS124 E Adapter: 1 ID: 0
Read mode : SecureUtilize accurate stream : YesDefeat audio cache : YesMake use of C2 pointers : No
Read offset correction : 6Overread into Lead-In and Lead-Out : NoFill up missing offset samples with silence : YesDelete leading and trailing silent blocks : NoNull samples used in CRC calculations : YesUsed interface : Native Win32 interface for Win NT & 2000Gap handling : Appended to previous track
Used output format : User Defined EncoderSelected bitrate : 768 kBit/sQuality : HighAdd ID3 tag : NoCommand line compressor : C:\Program Files (x86)\flac-1.3.2-win\win64\flac.exeAdditional command line options : -8 -V -T "ARTIST=%artist%" -T "TITLE=%title%" -T "ALBUM=%albumtitle%" -T "DATE=%year%" -T "TRACKNUMBER=%tracknr%" -T "GENRE=%genre%" -T "COMMENT=ripped by vp_sunset" %source% -o %dest%
TOC of the extracted CD
Track | Start | Length | Start sector | End sector --------------------------------------------------------- 1 | 0:00.00 | 19:01.12 | 0 | 85586 2 | 19:01.12 | 6:04.32 | 85587 | 112918 3 | 25:05.44 | 2:44.38 | 112919 | 125256 4 | 27:50.07 | 8:02.37 | 125257 | 161443
Track 1
Filename C:\_EAC\01. Puerta 186.wav
Pre-gap length 0:00:02.00
Peak level 98.1 % Extraction speed 2.5 X Track quality 100.0 % Test CRC F8E768A3 Copy CRC F8E768A3 Accurately ripped (confidence 1) [37E3FA0D] (AR v2) Copy OK
Track 2
Filename C:\_EAC\02. El hombre entre la multitud.wav
Pre-gap length 0:00:10.00
Peak level 96.9 % Extraction speed 2.9 X Track quality 100.0 % Test CRC 75EE2C19 Copy CRC 75EE2C19 Accurately ripped (confidence 1) [10813634] (AR v2) Copy OK
Track 3
Filename C:\_EAC\03. Fractura.wav
Pre-gap length 0:00:00.13
Peak level 98.7 % Extraction speed 2.7 X Track quality 100.0 % Test CRC A512ED3E Copy CRC A512ED3E Accurately ripped (confidence 1) [CB7A45CB] (AR v2) Copy OK
Track 4
Filename C:\_EAC\04. Nube 9.wav
Pre-gap length 0:00:05.00
Peak level 98.1 % Extraction speed 3.3 X Track quality 100.0 % Test CRC 11D2ECFC Copy CRC 11D2ECFC Accurately ripped (confidence 1) [9FC52087] (AR v2) Copy OK
All tracks accurately ripped
No errors occurred
End of status report
---- CUETools DB Plugin V2.1.4
[CTDB TOCID: k.rORDB1vh.f528ry2_k2Jt9b6Q-] foundSubmit result: k.rORDB1vh.f528ry2_k2Jt9b6Q- has been confirmedTrack | CTDB Status 1 | (2/2) Accurately ripped 2 | (2/2) Accurately ripped 3 | (2/2) Accurately ripped 4 | (2/2) Accurately ripped
==== Log checksum 89906602523975A56B4F276F500FE66AC6C650397696B3E524F7FE3824A94D8E ====

CUE sheet

REM GENRE "Progressive Rock"REM DATE 2015REM DISCID 28086804REM COMMENT "ExactAudioCopy v1.0b4"PERFORMER "El Círculo de Willis"TITLE "Retales"FILE "01. Puerta 186.wav" WAVE TRACK 01 AUDIO TITLE "Puerta 186" PERFORMER "El Círculo de Willis" INDEX 01 00:00:00 TRACK 02 AUDIO TITLE "El hombre entre la multitud" PERFORMER "El Círculo de Willis" INDEX 00 18:51:12FILE "02. El hombre entre la multitud.wav" WAVE INDEX 01 00:00:00 TRACK 03 AUDIO TITLE "Fractura" PERFORMER "El Círculo de Willis" INDEX 00 06:04:22FILE "03. Fractura.wav" WAVE INDEX 01 00:00:00 TRACK 04 AUDIO TITLE "Nube 9" PERFORMER "El Círculo de Willis" INDEX 00 02:39:38FILE "04. Nube 9.wav" WAVE INDEX 01 00:00:00

Лог проверки качества

-----------------------
DON'T MODIFY THIS FILE
-----------------------
PERFORMER: auCDtect Task Manager, ver. 1.6.0 RC1 build 1.6.0.1Copyright (c) 2008-2010 y-soft. All rights reservedhttp://y-soft.org
ANALYZER: auCDtect: CD records authenticity detector, version 0.8.2Copyright (c) 2004 Oleg Berngardt. All rights reserved.Copyright (c) 2004 Alexander Djourik. All rights reserved.
FILE: 01. Puerta 186.flac Size: 140136431 Hash: 29953B01805391F07A7A057AD137F67D Accuracy: -m0 Conclusion: CDDA 100% Signature: 8D71881F7E95BB02ABFADFA4C313A026258B1588FILE: 02. El hombre entre la multitud.flac Size: 43208039 Hash: 851EFA22A6B7B8FAE23B1B4DFC360DC8 Accuracy: -m0 Conclusion: CDDA 100% Signature: B536F1A11F60DFCB031A470A551BAC0151ED565AFILE: 03. Fractura.flac Size: 20933734 Hash: A69F71BD57CBA58E2153B4D998AA2054 Accuracy: -m0 Conclusion: CDDA 100% Signature: 2A47D9A867CEC5CB1C2863409828484BF6456C9FFILE: 04. Nube 9.flac Size: 56522999 Hash: 8CA4DDA8EF2C4D041D1E9279D09B1F89 Accuracy: -m0 Conclusion: CDDA 100% Signature: 0BA8BD1537D0B9B419352A3717537967AED90693

DRM.log

foobar2000 1.3.8 / Dynamic Range Meter 1.1.1log date: 2019-06-24 10:18:39
--------------------------------------------------------------------------------Analyzed: El Círculo de Willis / Retales--------------------------------------------------------------------------------
DR Peak RMS Duration Track--------------------------------------------------------------------------------DR9 -0.16 dB -11.62 dB 19:01 01-Puerta 186DR9 -0.27 dB -12.56 dB 6:04 02-El hombre entre la multitudDR9 -0.11 dB -10.96 dB 2:45 03-FracturaDR8 -0.16 dB -11.93 dB 8:02 04-Nube 9--------------------------------------------------------------------------------
Number of tracks: 4Official DR value: DR9
Samplerate: 44100 HzChannels: 2Bits per sample: 16Bitrate: 935 kbpsCodec: FLAC================================================================================
[ru-zerkalo.org]_t_5748468
Torrent: Registered ·  [ 2019-06-25 06:13 ] ·  ba31108a8d25530c3ca2b93501ac0d63ea97b137

21 KB

Status: checked
Completed: 0 times
Size: 882 MB
Rating: 
(Votes: 0)
Say thanks: 0  Thanks
 
Похожие темы
[Profile] [PM]
Display posts from previous:    
Reply to topic

The time now is: Today 22:51

All times are GMT + 7 Hours



You cannot post new topics in this forum
You cannot reply to topics in this forum
You cannot edit your posts in this forum
You cannot delete your posts in this forum
You cannot vote in polls in this forum
You cannot attach files in this forum
You can download files in this forum