Register · 
Username: Password:
 ·  Forgot password?

(Modern Classical, l. Moving Furniture Records) [WEB] Alvin Curran - Dead Beats [Reinier van Houdt] - 2019, FLAC (tracks), lossless

Reply to topic
DL-List and Torrent activity [Update пиров]
Size:  255 MB   |    Registered:  6 months 28 days   |    Completed:  0 times

Seeder not seen: Never

 
   
 
 
 
Author Message

Andrew1225 ®

Gender:

Longevity: 6 years 3 months

Posts: 17561

Post 25-Jun-2019 22:37

[Quote]

alvin curran — dead beats
  • Жанры: Modern Classical | Minimalism
  • Лэйбл: Moving Furniture (Netherlands)
  • Номер по каталогу: MFRC 001
  • red → bandcamp.com
  • альбома: 14.05.2019
  • Аудио кодек: FLAC (.flac)
  • Битрейт аудио: lossless
  • Тип рипа: tracks
  • Формат: WEB
    .
  • track listing
    01 Inner Cities No. 9 '9-11-01' [29:49]
    02 Dead Beats: Part I [09:26]
    03 Dead Beats: Part II [15:44]
    04 Dead Beats: Part III [13:43]
    05 Dead Beats: Part IV [12:18]
    06 Dead Beats: Part V [09:13]
    total length (01:30:10)

    .
  • credits
    Alvin Curran [United States]: composer
    Reinier van Houdt [Netherlands]: piano

SPOILERauCDtect

-----------------------
DON'T MODIFY THIS FILE
-----------------------
PERFORMER: auCDtect Task Manager, ver. 1.6.0 RC1 build 1.6.0.1Copyright (c) 2008-2010 y-soft. All rights reserved
ANALYZER: auCDtect: CD records authenticity detector, version 0.8.2Copyright (c) 2004 Oleg Berngardt. All rights reserved.Copyright (c) 2004 Alexander Djourik. All rights reserved.
FILE: 06. Dead Beats. Part V.flac Size: 31884540 Hash: B475DAB44950DA0743A8475A4B60991A Accuracy: -m0 Conclusion: CDDA 100% Signature: C757F450A734E5458B2A03C49A3675437358D3F8FILE: 05. Dead Beats. Part IV.flac Size: 30906079 Hash: F1A84F49B1EF6D530278875EB2DE27C8 Accuracy: -m0 Conclusion: CDDA 100% Signature: 321AF3A0C2535FBBAD865E7E5F97A0D69515D323FILE: 04. Dead Beats. Part III.flac Size: 35039335 Hash: CF2F135CC3AF91BD7339CD9C17834157 Accuracy: -m0 Conclusion: CDDA 100% Signature: 13EE8453C3622861D5AE61FA97758A3E2DD5638BFILE: 03. Dead Beats. Part II.flac Size: 52514982 Hash: B78564D2403D1E8EF05ACF9C1A89982A Accuracy: -m0 Conclusion: CDDA 100% Signature: 72DC8D5390B0A5FB7CF2E9E09CD29E25DD82B41BFILE: 02. Dead Beats. Part I.flac Size: 33048573 Hash: 28B938E77C42C4EC5E3181AC91575EAC Accuracy: -m0 Conclusion: CDDA 100% Signature: ED100007C27065481F7808D6AAA59DC2DE2E4B99FILE: 01. Inner Cities No. 9 '9-11-01'.flac Size: 83306447 Hash: 1017811DEBF8306CF7F7AD5870544CFB Accuracy: -m0 Conclusion: CDDA 100% Signature: A061FA3C8C80C251900B0ABA0C5F896404FA0B0D

DR

foobar2000 1.3.9 / Dynamic Range Meter 1.1.1log date: 2019-06-17 13:55:59
--------------------------------------------------------------------------------Analyzed: Reinier van Houdt / Dead Beats--------------------------------------------------------------------------------
DR Peak RMS Duration Track--------------------------------------------------------------------------------DR13 -0.31 dB -20.29 dB 29:49 01-Inner Cities No. 9 '9-11-01'DR13 -0.10 dB -15.52 dB 9:26 02-Dead Beats: Part IDR12 -0.10 dB -17.26 dB 15:43 03-Dead Beats: Part IIDR14 -9.45 dB -27.92 dB 13:43 04-Dead Beats: Part IIIDR14 -7.71 dB -27.28 dB 12:17 05-Dead Beats: Part IVDR15 -0.10 dB -18.83 dB 9:12 06-Dead Beats: Part V--------------------------------------------------------------------------------
Number of tracks: 6Official DR value: DR14
Samplerate: 44100 HzChannels: 2Bits per sample: 16Bitrate: 460 kbpsCodec: FLAC================================================================================

SPECTROGRAM

[ru-zerkalo.org]_t_5746180
Torrent: Registered ·  [ 2019-06-25 22:35 ] ·  90a22ee45726ec76d7fa9aa7c3db5776a4a0d2ec

21 KB

Status: checked
Completed: 0 times
Size: 255 MB
Rating: 
(Votes: 0)
Say thanks: 0  Thanks
 
Похожие темы
[Profile] [PM]
Display posts from previous:    
Reply to topic

The time now is: Today 07:16

All times are GMT + 7 Hours



You cannot post new topics in this forum
You cannot reply to topics in this forum
You cannot edit your posts in this forum
You cannot delete your posts in this forum
You cannot vote in polls in this forum
You cannot attach files in this forum
You can download files in this forum