Register · 
Username: Password:
 ·  Forgot password?

(Onkyo, Modern Classical) [WEB] Minami Saeki / Wakana Ikeda / Yoko Ikeda / Taku Sugimoto / Stefan Thut / Manfred Werder - Sextet [l. Meenna] - 2018, FLAC (tracks), lossless

Reply to topic
DL-List and Torrent activity [Update пиров]
Size:  268 MB   |    Registered:  6 months 27 days   |    Completed:  0 times

Seeder not seen: Never

 
   
 
 
 
Author Message

Andrew1225 ®

Gender:

Longevity: 6 years 3 months

Posts: 17566

Post 27-Jun-2019 12:01

[Quote]

VA"Sextet"2018
Recorded at Theater Delly, Solothurn, Switzerland, October 9, 2017
released November 11, 2018

.

Жанры • Onkyo | Chamber Music | Modern Classical
Издатель альбома • Meenna (Japan)
Номер по каталогу • meenna-979
Тип • tracks Носитель • WEB
Аудиокодек • FLAC (*.flac)
Источник • redacted.ch [bandcamp.com]
.
Track Listing [01:14:50]
01. Kozueni .(14:00)
02. Choices .(14:00)
03. 4.2 .(01:33)
04. 6 ausführende seiten 25-27 .(23:18)
05. Amidst .(22:00)
.

+ / -к а ч е с т в о

-----------------------
DON'T MODIFY THIS FILE
-----------------------
PERFORMER: auCDtect Task Manager, ver. 1.6.0 RC1 build 1.6.0.1Copyright (c) 2008-2010 y-soft. All rights reserved
ANALYZER: auCDtect: CD records authenticity detector, version 0.8.2Copyright (c) 2004 Oleg Berngardt. All rights reserved.Copyright (c) 2004 Alexander Djourik. All rights reserved.
FILE: 05. Amidst.flac Size: 80110387 Hash: 07DE07CCE52BB8B859547479F773E640 Accuracy: -m0 Conclusion: ??? Signature: 906C201B4BD49C752720E3840D6663A53AD5A4A2FILE: 04. 6 ausführende seiten 25-27.flac Size: 91725499 Hash: B0D27D0CDB5905D0F6805DE783BC595F Accuracy: -m0 Conclusion: CDDA 42% Signature: 017DE021EF78275A8BE6F391350B5BFBBBB1307BFILE: 03. 4.2.flac Size: 6237388 Hash: 17F1FD72029E7ADFB8796C20DEC22670 Accuracy: -m0 Conclusion: ??? Signature: 4710B17C44165DC692E34A831F1773A021A540E1FILE: 02. Choices.flac Size: 52240800 Hash: 3E126706D54C21F61A8BD278549FEF99 Accuracy: -m0 Conclusion: ??? Signature: 461FF37BB08477B32A00DD19FF7FACB43CEAEDF0FILE: 01. Kozueni.flac Size: 50420509 Hash: C15FD3BA02FDBCD7634FB91E9877BC6F Accuracy: -m0 Conclusion: CDDA 54% Signature: C9E528AF0DA9D9D9F9A5208FA01F533FA611B84F

д д

foobar2000 1.3.9 / Dynamic Range Meter 1.1.1log date: 2019-06-26 21:34:58
--------------------------------------------------------------------------------Analyzed: Minami Saeki / Wakana Ikeda / Yoko Ikeda / Taku Sugimoto / Stefan Thut / Manfred Werder / Sextet--------------------------------------------------------------------------------
DR Peak RMS Duration Track--------------------------------------------------------------------------------DR6 -1.42 dB -20.28 dB 14:00 01-KozueniDR16 -1.93 dB -28.73 dB 14:00 02-ChoicesDR9 -9.43 dB -23.37 dB 1:32 03-4.2DR17 -6.87 dB -32.09 dB 23:18 04-6 ausführende seiten 25-27DR17 -0.53 dB -24.44 dB 22:00 05-Amidst--------------------------------------------------------------------------------
Number of tracks: 5Official DR value: DR13
Samplerate: 44100 HzChannels: 2Bits per sample: 16Bitrate: 485 kbpsCodec: FLAC================================================================================

с п е к т р ы

CREDITS
Minami Saeki • voice
Wakana Ikeda • flute | composition (01)
Yoko Ikeda • viola | composition (02)
Taku Sugimoto • guitar | composition (03)
Stefan Thut • cello | composition (05)
Manfred Werder • glockenspiel | typewriter | composition (04)
[ru-zerkalo.org]_t_5749249
Torrent: Registered ·  [ 2019-06-27 12:01 ] ·  8ee34a381d62a65c8bdb36e63feb7063bcb31244

11 KB

Status: checked
Completed: 0 times
Size: 268 MB
Rating: 
(Votes: 0)
Say thanks: 0  Thanks
 
Похожие темы
[Profile] [PM]
Display posts from previous:    
Reply to topic

The time now is: Today 19:32

All times are GMT + 7 Hours



You cannot post new topics in this forum
You cannot reply to topics in this forum
You cannot edit your posts in this forum
You cannot delete your posts in this forum
You cannot vote in polls in this forum
You cannot attach files in this forum
You can download files in this forum