Register · 
Username: Password:
 ·  Forgot password?

(Ambient, EAI, Drone) [WEB] FEAN (Mariska Baars / Joachim Badenhorst / Sylvain Chauveau / Annelies Monsere / Jan Kleefstra / Romke Kleefstra / Rutger Zuydervelt) - FEAN [l. Moving Furniture] - 2018, FLAC (tracks), lossless

Reply to topic
DL-List and Torrent activity [Update пиров]
Size:  271 MB   |    Registered:  7 months 20 days   |    Completed:  1 time

Seeder not seen: 21 hour

 
   
 
 
 
Author Message

manic-manic ®

Gender:

Longevity: 6 years 4 months

Posts: 14246

Post 27-Jun-2019 12:01

[Quote]

FEAN"FEAN"2018
Страна группы [formed] • Netherlands (Katlijkm Friesland)

.

Жанры • Ambient | EAI | Drone
Лэйбл • Moving Furniture (Netherlands)
Номер по каталогу • MFR 069
Тип • tracks Носитель • WEB
Аудиокодек • FLAC (*.flac)
Источник • RED [bandcamp.com]
.
Track Listing [01:01:25]
01. Ketlik I .(02:17)
02. Peaoffer .(10:56)
03. Ketlik II .(03:12)
04. Oardeis .(08:33)
05. Ketlik III .(02:36)
06. Lytse poel .(09:24)
07. Ketlik IV .(02:56)
08. Ketlik V .(02:23)
09. Wetterreid .(19:12)

.
released November 23, 2018

+ / -к а ч е с т в о

-----------------------
DON'T MODIFY THIS FILE
-----------------------
PERFORMER: auCDtect Task Manager, ver. 1.6.0 RC1 build 1.6.0.1Copyright (c) 2008-2010 y-soft. All rights reserved
ANALYZER: auCDtect: CD records authenticity detector, version 0.8.2Copyright (c) 2004 Oleg Berngardt. All rights reserved.Copyright (c) 2004 Alexander Djourik. All rights reserved.
FILE: 09. Wetterreid.flac Size: 95838375 Hash: 6F19B12E0D9051813E35FC0151E47D68 Accuracy: -m0 Conclusion: CDDA 100% Signature: 375217569EB60C3C5DAFD340BA30EBB033C4E80AFILE: 08. Ketlik V.flac Size: 11698952 Hash: 0360B1622AA6746F84880C4DC8F29DA6 Accuracy: -m0 Conclusion: CDDA 100% Signature: 62F59A814515D5695B2A828EBDEE6F9FA29B2102FILE: 07. Ketlik IV.flac Size: 13383167 Hash: A15990F55AB14385868B886E86466BC5 Accuracy: -m0 Conclusion: CDDA 100% Signature: E963E2C0AF7C3ECA0DD7967C29F8D6F089BE95B7FILE: 06. Lytse poel.flac Size: 47352388 Hash: 60AD72104F54FE4A58C9D682C19B07F8 Accuracy: -m0 Conclusion: CDDA 100% Signature: E80984292518672A31FCB42A619945B3D9BE533CFILE: 05. Ketlik III.flac Size: 15359166 Hash: 83BF4D1066C123F9D2E9E4CD2C93AA3E Accuracy: -m0 Conclusion: CDDA 100% Signature: 722C890F81CD9E2DCAC07638BF6B72DF09AB95BBFILE: 04. Oardeis.flac Size: 40314047 Hash: 1BCA6AB1A28ACB8AFB96B8349DC39C9B Accuracy: -m0 Conclusion: CDDA 43% Signature: B4FBD440722774C3D248357C35156C44DE91D1CBFILE: 03. Ketlik II.flac Size: 7491053 Hash: 8053E31FA3AF0E90B4FEA96CB6A23827 Accuracy: -m0 Conclusion: MPEG 100% Signature: BA53FBB7F09CACB94CFEE61D908430B571099CA9FILE: 02. Peaoffer.flac Size: 44322975 Hash: 661854FDBC64F65B00D2D81277CA38E7 Accuracy: -m0 Conclusion: CDDA 99% Signature: 59EB4759C4E980D6BECDE8EE11222AE0435088C1FILE: 01. Ketlik I.flac Size: 8201445 Hash: E9423B01A4BF3237D7932D2186DCFDAE Accuracy: -m0 Conclusion: CDDA 62% Signature: 133F29BF5AF4B95C2BBF097F31842F20B34A64B7

д д

foobar2000 1.3.9 / Dynamic Range Meter 1.1.1log date: 2019-06-26 21:30:48
--------------------------------------------------------------------------------Analyzed: FEAN / FEAN--------------------------------------------------------------------------------
DR Peak RMS Duration Track--------------------------------------------------------------------------------DR10 -1.46 dB -15.67 dB 2:17 01-Ketlik IDR9 -1.45 dB -14.15 dB 10:55 02-PeaofferDR10 -1.46 dB -13.74 dB 3:11 03-Ketlik IIDR11 -1.46 dB -16.32 dB 8:32 04-OardeisDR9 -1.46 dB -13.70 dB 2:35 05-Ketlik IIIDR9 -1.46 dB -13.87 dB 9:24 06-Lytse poelDR9 -1.45 dB -15.54 dB 2:56 07-Ketlik IVDR10 -1.46 dB -15.62 dB 2:23 08-Ketlik VDR10 -1.45 dB -14.83 dB 19:11 09-Wetterreid--------------------------------------------------------------------------------
Number of tracks: 9Official DR value: DR10
Samplerate: 44100 HzChannels: 2Bits per sample: 16Bitrate: 665 kbpsCodec: FLAC================================================================================

с п е к т р ы

CREDITS
Mariska Baars • vocals
Joachim Badenhorst • clarinet | bass clarinet | saxophone | church organ
Sylvain Chauveau • percussion | radio
Annelies Monseré • church organ | keyboard | vocals
Jan Kleefstra • lyrics | vocals
Romke Kleefstra • guitars | bass | effects
Rutger Zuydervelt • electronics
[ru-zerkalo.org]_t_5749250
Torrent: Registered ·  [ 2019-06-27 12:01 ] ·  cfb983ec0ad3758f352501550d5c455dd32dc186

12 KB

Status: checked
Completed: 1 times
Size: 271 MB
Rating: 
(Votes: 0)
Say thanks: 0  Thanks
 
Похожие темы
[Profile] [PM]
Display posts from previous:    
Reply to topic

The time now is: Today 15:05

All times are GMT + 7 Hours



You cannot post new topics in this forum
You cannot reply to topics in this forum
You cannot edit your posts in this forum
You cannot delete your posts in this forum
You cannot vote in polls in this forum
You cannot attach files in this forum
You can download files in this forum