Register · 
Username: Password:
 ·  Forgot password?

(Electroacoustic, Dark Ambient) [WEB] Lucy Railton - Paradise 94 [l. Modern Love] - 2018, FLAC (tracks), lossless

Reply to topic
DL-List and Torrent activity [Update пиров]
Size:  187 MB   |    Registered:  7 months 20 days   |    Completed:  0 times

Seeder not seen: Never

 
   
 
 
 
Author Message

manic-manic ®

Gender:

Longevity: 6 years 4 months

Posts: 14246

Post 27-Jun-2019 12:01

[Quote]

Lucy Railton"Paradise 94"2018
Lucy Railton [currently] • UK (London, Greater London)

.

Жанры • Electroacoustic | Dark Ambient
Издатель • Modern Love (UK)
Номер по каталогу • LOVE 108
Аудиокодек • FLAC (*.flac)
Тип • tracks Носитель • WEB
Источник • RED [beatport.com]
.
Track Listing [00:33:27]
01. Pinnevik .(05:06)
02. To the End .(04:21)
03. The Critical Rush .(05:37)
04. Gaslighter .(03:38)
05. For J.R. .(03:09)
06. Fortified Up .(11:39)

.
released March 23, 2018

+ / -к а ч е с т в о

-----------------------
DON'T MODIFY THIS FILE
-----------------------
PERFORMER: auCDtect Task Manager, ver. 1.6.0 RC1 build 1.6.0.1Copyright (c) 2008-2010 y-soft. All rights reserved
ANALYZER: auCDtect: CD records authenticity detector, version 0.8.2Copyright (c) 2004 Oleg Berngardt. All rights reserved.Copyright (c) 2004 Alexander Djourik. All rights reserved.
FILE: 06. Fortified Up.flac Size: 73000124 Hash: CD19CEBFBC904692CD52D9F4AA057AFD Accuracy: -m0 Conclusion: CDDA 100% Signature: 2407A983E13DC056DA2FFA25B2430DE5A96A80E7FILE: 05. For J.R..flac Size: 15197783 Hash: 774AFBBDC627C1728F5477A4EEF362AD Accuracy: -m0 Conclusion: CDDA 100% Signature: EEA4D9440BA73CD66EDA1EBB5F13D3FF330F50AEFILE: 04. Gaslighter.flac Size: 19706809 Hash: 6E4C3EBA88B5864BD9282094CE768444 Accuracy: -m0 Conclusion: CDDA 100% Signature: 405F62B7D26401F8516E683725EFB3EA1325AB39FILE: 03. The Critical Rush.flac Size: 33591488 Hash: D1F65FF0FF926494C058C33E750070DE Accuracy: -m0 Conclusion: CDDA 100% Signature: 69088F48B748F484904844456B3066E0F91CE4DDFILE: 02. To the End.flac Size: 24526792 Hash: D359FDB2AAC80CBEA982496A707C700D Accuracy: -m0 Conclusion: CDDA 100% Signature: 8769653C50099D03AA98D0C13A8D446E6E1C70C0FILE: 01. Pinnevik.flac Size: 29065176 Hash: 78B2CDF5FD47A4D0205426B5E883C1A0 Accuracy: -m0 Conclusion: CDDA 100% Signature: 8861A38840CE13D1C4AD44DF6C8EF5AB56F26702

д д

foobar2000 1.3.9 / Dynamic Range Meter 1.1.1log date: 2019-06-26 21:33:26
--------------------------------------------------------------------------------Analyzed: Lucy Railton / Paradise 94--------------------------------------------------------------------------------
DR Peak RMS Duration Track--------------------------------------------------------------------------------DR7 -0.30 dB -10.17 dB 5:06 01-PinnevikDR6 -0.28 dB -11.24 dB 4:20 02-To the EndDR5 -0.29 dB -9.05 dB 5:37 03-The Critical RushDR7 -0.30 dB -10.71 dB 3:37 04-GaslighterDR8 -0.30 dB -11.75 dB 3:08 05-For J.R.DR9 -0.30 dB -11.58 dB 11:38 06-Fortified Up--------------------------------------------------------------------------------
Number of tracks: 6Official DR value: DR7
Samplerate: 44100 HzChannels: 2Bits per sample: 16Bitrate: 836 kbpsCodec: FLAC================================================================================

с п е к т р ы

[ru-zerkalo.org]_t_5749248
Torrent: Registered ·  [ 2019-06-27 12:01 ] ·  bc00f75cb207c46861a45289fe00aacfc52a9582

15 KB

Status: checked
Completed: 0 times
Size: 187 MB
Rating: 
(Votes: 0)
Say thanks: 0  Thanks
 
Похожие темы
[Profile] [PM]
Display posts from previous:    
Reply to topic

The time now is: Today 15:04

All times are GMT + 7 Hours



You cannot post new topics in this forum
You cannot reply to topics in this forum
You cannot edit your posts in this forum
You cannot delete your posts in this forum
You cannot vote in polls in this forum
You cannot attach files in this forum
You can download files in this forum