Register · 
Username: Password:
 ·  Forgot password?

(Heavy Blues | Stoner Rock) [WEB] Faerie Ring - The Clearing - 2019, FLAC (tracks), lossless

Reply to topic
DL-List and Torrent activity [Update пиров]
Size:  236 MB   |    Registered:  7 months 19 days   |    Completed:  0 times

Seeder not seen: Never

 
   
 
 
 
Author Message

Nestor_13 ®

Gender:

Longevity: 6 years 4 months

Posts: 21727

Post 30-Jun-2019 19:04

[Quote]



Faerie Ring

The Clearing





• Жанр: Heavy Blues | Stoner Rock
• Носитель: WEB
• Год издания: 2019
• Страна: USA
• Аудиокодек: FLAC (*.flac)
• Тип рипа: tracks
• Продолжительность: 00:36:30
internet
• Наличие сканов: front

01 - Bite the Ash (00:04:00)
02 - Lost Wind (00:05:41)
03 - The Ring (00:05:01)
04 - Somnium (00:06:29)
05 - Miracle (00:04:32)
06 - Heavy Trip (00:05:17)
07 - Heaven's End (00:05:26)
--

• Лог DRM •

foobar2000 1.4.2 / Dynamic Range Meter 1.1.1log date: 2019-06-09 07:53:32
--------------------------------------------------------------------------------Analyzed: Faerie Ring / The Clearing--------------------------------------------------------------------------------
DR Peak RMS Duration Track--------------------------------------------------------------------------------DR5 -0.30 dB -6.44 dB 4:01 01-Bite the AshDR6 -0.30 dB -7.97 dB 5:42 02-Lost WindDR6 -0.30 dB -7.35 dB 5:01 03-The RingDR6 -0.30 dB -7.48 dB 6:29 04-SomniumDR6 -0.30 dB -7.08 dB 4:32 05-MiracleDR6 -0.30 dB -7.38 dB 5:18 06-Heavy TripDR6 -0.30 dB -7.14 dB 5:27 07-Heaven's End--------------------------------------------------------------------------------
Number of tracks: 7Official DR value: DR6
Samplerate: 44100 HzChannels: 2Bits per sample: 16Bitrate: 940 kbpsCodec: FLAC================================================================================
-

• Лог проверки качества •

-----------------------
DON'T MODIFY THIS FILE
-----------------------
PERFORMER: auCDtect Task Manager, ver. 1.5.1RC3 build 1.5.1.4Copyright (c) 2008-2010 y-soft. All rights reservedhttp://y-soft.org
ANALYZER: auCDtect: CD records authenticity detector, version 0.8.2Copyright (c) 2004 Oleg Berngardt. All rights reserved.Copyright (c) 2004 Alexander Djourik. All rights reserved.
FILE: 07.flac Size: 38460171 Hash: FD8F4403066E8758AA2CE10C34178276 Accuracy: -m8 Conclusion: CDDA 100% Signature: 02836362BC126C822AE9F81A85A755D3AE44B5A9FILE: 06.flac Size: 36103065 Hash: 55E9FB7DAAB186126452E2A74B17D6E6 Accuracy: -m8 Conclusion: CDDA 99% Signature: 9A3C6C33330F033CCB20A67212DD5B9B4EC9BB5FFILE: 05.flac Size: 31680905 Hash: D66988DAD3C54D88C5FA8CF519BAFFFA Accuracy: -m8 Conclusion: CDDA 100% Signature: 0C98363DCF4A61114AB2B2E732F57A39BFBCE2F1FILE: 04.flac Size: 41548332 Hash: 79E2AAC785DD64222980B94F009309FC Accuracy: -m8 Conclusion: CDDA 100% Signature: 8BD59FE6DA2E61898CADE3EC0F79D26A4BBBB954FILE: 03.flac Size: 35320514 Hash: F725BA77B62D34B96578117C5A1DA1BC Accuracy: -m8 Conclusion: CDDA 100% Signature: 9E971FD4FD7F8248B06D8A0D6F1C7ADFC1639D5EFILE: 02.flac Size: 35808830 Hash: 3DE64CAC4E2A798742B6CBE56EF7D83E Accuracy: -m8 Conclusion: CDDA 49% Signature: 0F27E269432D92838E07598A5B969FF6EFE2D8B4FILE: 01.flac Size: 28292012 Hash: 9FF1E3354291163B1E98F639CEF342DF Accuracy: -m8 Conclusion: CDDA 100% Signature: 644193B230B65404E6BC40B39BFAD1BEF1891969
-
[ru-zerkalo.org]_t_5745751
Torrent: Registered ·  [ 2019-06-30 19:03 ] ·  d6f320880afef2c4df1dcb3351b78535ba1d7626

19 KB

Status: checked
Completed: 0 times
Size: 236 MB
Rating: 
(Votes: 0)
Say thanks: 0  Thanks
 
Похожие темы
[Profile] [PM]
Display posts from previous:    
Reply to topic

The time now is: Today 01:30

All times are GMT + 7 Hours



You cannot post new topics in this forum
You cannot reply to topics in this forum
You cannot edit your posts in this forum
You cannot delete your posts in this forum
You cannot vote in polls in this forum
You cannot attach files in this forum
You can download files in this forum