Register · 
Username: Password:
 ·  Forgot password?

Мама Рома / Mamma Roma (Пьер Паоло Пазолини / Pier Paolo Pasolini) [1962, Италия, драма, DVDRip] MVO (Петербург – 5 канал) + DVO (Культура) + Original Ita

Reply to topic
DL-List and Torrent activity [Update пиров]
Size:  1.61 GB   |    Registered:  7 months 3 days   |    Completed:  0 times

Seeder not seen: Never

 
   
 
 
 
Author Message

rychkalov ®

Gender:

Longevity: 6 years 4 months

Posts: 18690

Post 14-Jul-2019 09:55

[Quote]

Мама Рома / Mamma Roma
Страна: Италия
Жанр: драма
Год выпуска: 1962
Продолжительность: 01:46:37
Перевод 1: Профессиональный (многоголосый закадровый) / «ТРК Петербург – 5 канал»
Перевод 2: Профессиональный (двухголосый закадровый) / телеканал «Культура»
Субтитры: нет
Оригинальная аудиодорожка: итальянский
Режиссер: Пьер Паоло Пазолини / Pier Paolo Pasolini
В ролях: Анна Маньяни (Anna Magnani / Mamma Roma), Этторе Гарофоло (Ettore Garofolo / Ettore), Франко Читти (Franco Citti / Carmine), Сильвана Корсини (Silvana Corsini / Bruna), Луиза Лоиано (Luisa Loiano / Biancofiore), Паоло Волпони (Paolo Volponi / Il Prete (Priest)), Лучиано Гонини (Luciano Gonini / Zacaria), Витторио Ла Палья (Vittorio La Paglia / Il sig. Pellissier), Пьеро Морджа (Piero Morgia / Piero), Марселло Соррентино (Marcello Sorrentino / Tonino), Леандро Сантарелли (Leandro Santarelli / Begalo), Эмануеле Ди Бари (Emanuele Di Bari / Gennarino il trovatore), Антонио Сполетини (Antonio Spoletini / Un pompieretto), Мария Бернардини (Maria Bernardini / La sposa (The Bride)), Ренато Монтальбано (Renato Montalbano / Un infermiere (Nurse)) и другие.
Описание: Бывшая проститутка по прозвищу «Мама Рома» (Анна Маньяни) пытается начать новую жизнь. Вместе с сыном (Этторе Гарофоло), которого она забрала из деревни, она переезжает в другую часть Рима, где пытается зарабатывать на жизнь, торгуя овощами. «Мама Рома» безумно любит своего сына и изо всех сил старается дать ему самое лучшее. Но все жертвы, принесенные ею ради него, оказываются напрасными...
Доп. информация: В релизе представлены озвучки отсутствующие на трекере. Озвучка «ТРК Петербург – 5 канал» из моей коллекции. За озвучку записанную с телеканала «Культура» спасибо [url=profile.php?mode=viewprofile&u=6840578]H.pkin[/url]. За для видео спасибо [url=profile.php?mode=viewprofile&u=567765]Oleg39[/url].

Сэмпл: Здесь
Качество видео: DVDRip ( DVD9)
Формат видео: AVI
Видео: XviD, 704x384 (1,83:1) / 23,976 fps / 1568 kbps / 0,242 bit/pixel
Аудио 1: Russian: AC3 1/0 (L, R) ch, 192 kbps, 48 kHz, 16 bit / многоголосый (ТРК Петербург – 5 канал)
Аудио 2: Russian: AC3 2/0 (L, R) ch, 192 kbps, 48 kHz, 16 bit / двухголосый (Культура)
Аудио 3: Italian: AC3 1/0 (L, R) ch, 192 kbps, 48 kHz, 16 bit – отдельно
Размер рипа без оригинальной аудиодорожки 1,46 Гб.

MediaInfo

ОбщееПолное имя : D:\Папка для скачиваний в \Mamma.Roma.1962.DVDRip[MVO+DVO+Original]\Mamma.Roma.1962_DVDRip.aviФормат : AVIФормат/Информация : Audio Video InterleaveРазмер файла : 1,46 ГбайтПродолжительность : 1 ч. 46 м.Общий поток : 1967 Кбит/секПрограмма кодирования : VirtualDubMod 1.5.10.2 (build 2540/release)Библиотека кодирования : VirtualDubMod build 2540/release
ВидеоИдентификатор : 0Формат : MPEG-4 VisualПрофиль формата : Advanced Simple@L5Параметр BVOP формата : 1Параметр QPel формата : НетПараметр GMC формата : Без точки переходаПараметр матрицы формата : ВыборочнаяИдентификатор кодека : XVIDИдентификатор кодека/Подсказка : XviDПродолжительность : 1 ч. 46 м.Битрейт : 1568 Кбит/секШирина : 704 пикселяВысота : 384 пикселяСоотношение сторон : 1,85:1Частота кадров : 23,976 кадра/секЦветовое пространство : YUVСубдискретизация насыщенности : 4:2:0Битовая глубина : 8 битТип развёртки : ПрогрессивнаяМетод сжатия : С потерямиБит/(Пиксели*Кадры) : 0.242Размер потока : 1,17 Гбайт (80%)Библиотека кодирования : XviD 1.2.1 (UTC 2008-12-04)
Аудио #1Идентификатор : 1Формат : AC-3Формат/Информация : Audio Coding 3Расширение режима : CM (complete main)Параметр Endianness формата : BigИдентификатор кодека : 2000Продолжительность : 1 ч. 46 м.Вид битрейта : ПостоянныйБитрейт : 192 Кбит/секКаналы : 1 каналРасположение каналов : Front: CЧастота : 48,0 КГцБитовая глубина : 16 битМетод сжатия : С потерямиРазмер потока : 146 Мбайт (10%)Выравнивание : Разделение по промежуткамПродолжительность промежутка : 42 мс. (1,00 видеокадр)Время предзагрузки промежутка : 500 мс.Заголовок : MVO (ТРК Петербург - 5 канал)
Аудио #2Идентификатор : 2Формат : AC-3Формат/Информация : Audio Coding 3Расширение режима : CM (complete main)Параметр Endianness формата : BigИдентификатор кодека : 2000Продолжительность : 1 ч. 46 м.Вид битрейта : ПостоянныйБитрейт : 192 Кбит/секКаналы : 2 каналаРасположение каналов : Front: L RЧастота : 48,0 КГцБитовая глубина : 16 битМетод сжатия : С потерямиРазмер потока : 146 Мбайт (10%)Выравнивание : Разделение по промежуткамПродолжительность промежутка : 42 мс. (1,00 видеокадр)Время предзагрузки промежутка : 500 мс.Заголовок : DVO (Культура)

Скриншот c названием фильма

Скриншоты

[ru-zerkalo.org]_t_5753651
Torrent: Registered ·  [ 2019-07-14 09:55 ] ·  1753ba00a6964c9625e6462fd00b134ad66d28b7

17 KB

Status: checked
Completed: 0 times
Size: 1.61 GB
Rating: 
(Votes: 0)
Say thanks: 0  Thanks
 
Похожие темы
[Profile] [PM]
Display posts from previous:    
Reply to topic

The time now is: Today 15:03

All times are GMT + 7 Hours



You cannot post new topics in this forum
You cannot reply to topics in this forum
You cannot edit your posts in this forum
You cannot delete your posts in this forum
You cannot vote in polls in this forum
You cannot attach files in this forum
You can download files in this forum