Register · 
Username: Password:
 ·  Forgot password?

(Atmospheric Doom / Stoner Metal) [WEB] Monte Palomar - Cenit - 2018, FLAC (tracks), lossless

Reply to topic
DL-List and Torrent activity [Update пиров]
Size:  155 MB   |    Registered:  2 months 23 days   |    Completed:  0 times

Seeder not seen: Never

 
   
 
 
 
Author Message

Nestor_13 ®

Gender:

Longevity: 6 years

Posts: 20795

Post 31-Jul-2019 04:54

[Quote]

Monte Palomar / Cénit
Жанр: Atmospheric Doom / Stoner Metal
Носитель: WEB
Год издания: 2018
Издатель (лейбл): Self-Released
Номер по каталогу: none
Страна исполнителя (группы): Argentina (Rosario, Santa Fe)
Аудиокодек: FLAC (*.flac)
Тип рипа: tracks
Продолжительность: 00:24:45
Источник: собственная покупка
Наличие сканов в содержимом раздачи: нет
Трек-лист:
01. Oración. (05:16)
02. Cénit. (05:31)
03. Viento Solar. (06:51)
04. De Falsos Origenes. (07:07)

Лог проверки качества

-----------------------
DON'T MODIFY THIS FILE
-----------------------
PERFORMER: auCDtect Task Manager, ver. 1.6.0 RC1 build 1.6.0.1Copyright (c) 2008-2010 y-soft. All rights reservedhttp://y-soft.org
ANALYZER: auCDtect: CD records authenticity detector, version 0.8.2Copyright (c) 2004 Oleg Berngardt. All rights reserved.Copyright (c) 2004 Alexander Djourik. All rights reserved.
FILE: 01. Oración.flac Size: 33692703 Hash: 32E130037A27B9BCDD0B4BC6738F5457 Accuracy: -m0 Conclusion: CDDA 100% Signature: 6658EF0337B38FCFAFFC5268140D2FDC71915079FILE: 02. Cénit.flac Size: 38485015 Hash: AF5A0C267CC4982B332492E1E4F9190E Accuracy: -m0 Conclusion: CDDA 100% Signature: 54F2F2CB15727FE77D8D7E4C6EA210F78958FCB7FILE: 03. Viento Solar.flac Size: 42472181 Hash: 41D431092F5A894B6AA77DFEB31E5564 Accuracy: -m0 Conclusion: CDDA 100% Signature: B428CBB91B3BA958D7ED7436FCD11F1A55393F47FILE: 04. De Falsos Origenes.flac Size: 46848530 Hash: 14C63A19F7CF207C3D438F5E301BD992 Accuracy: -m0 Conclusion: CDDA 99% Signature: 5080CDB3F55311020146D770E706FFEE248CB823

Замер динамического диапазона

foobar2000 1.3.4 / Замер динамического диапазона (DR) 1.1.1Дата отчёта: 2019-07-30 12:33:28
--------------------------------------------------------------------------------Анализ: Monte Palomar / Cénit--------------------------------------------------------------------------------
DR Пики RMS Продолжительность трека--------------------------------------------------------------------------------DR6 -0.03 дБ -8.22 дБ 5:16 01-OraciónDR6 -0.03 дБ -6.49 дБ 5:31 02-CénitDR6 -0.03 дБ -8.95 дБ 6:51 03-Viento SolarDR5 -0.03 дБ -7.42 дБ 7:07 04-De Falsos Origenes--------------------------------------------------------------------------------
Количество треков: 4Реальные значения DR: DR6
Частота: 44100 ГцКаналов: 2Разрядность: 16Битрейт: 874 кбит/сКодек: FLAC================================================================================
-

Состав

Sasa Fontana - vocals.
Pablo González - guitars.
Alejandro González - guitars.
Leonardo Salani - bass.
Eric Flägel - drums & percussion.
[ru-zerkalo.org]_t_5760860
Torrent: Registered ·  [ 2019-07-31 04:54 ] ·  f7bc05682ab13781e9522e7c121653bb30b762e5

13 KB

Status: checked
Completed: 0 times
Size: 155 MB
Rating: 
(Votes: 0)
Say thanks: 0  Thanks
 
Похожие темы
[Profile] [PM]
Display posts from previous:    
Reply to topic

The time now is: Today 06:42

All times are GMT + 7 Hours



You cannot post new topics in this forum
You cannot reply to topics in this forum
You cannot edit your posts in this forum
You cannot delete your posts in this forum
You cannot vote in polls in this forum
You cannot attach files in this forum
You can download files in this forum