Register · 
Username: Password:
 ·  Forgot password?

Извне / С того света / From Beyond (Стюарт Гордон / Stuart Gordon) [1986, США, ужасы, фантастика, BDRip-AVC] AVO (А.Гаврилов)

Reply to topic
DL-List and Torrent activity [Update пиров]
Size:  750 MB   |    Registered:  6 months 6 days   |    Completed:  1 time

Seeder not seen: 4 months 4 days

 
   
 
 
 
Author Message

god56 ®

Gender:

Longevity: 6 years 4 months

Posts: 26204

Post 11-Aug-2019 12:05

[Quote]

Извне / С того света / From Beyond
Страна: США
Жанр: ужасы, фантастика
Год выпуска: 1986
Продолжительность: 01:25:36
Перевод: Авторский (одноголосый закадровый) А.Гаврилов
Субтитры: русские
Оригинальная аудиодорожка: нет
Режиссер: Стюарт Гордон / Stuart Gordon
В ролях: Джеффри Комбс, Барбара Крэмптон, Кен Фори, Тед Сорел, Кэролин Перди-Гордон, Банни Саммерс, Брюс МакГуайр, Дел Рассел, Дэйл Виатт
Описание: Гениальный физик Эдвард Преториус и его ассистент Кроуфорд Тиллингаст создают таинственный прибор. Резонатор! Резонатор стимулирует, находящуюся в мозге, мало изученную шишковидную железу – эпифиз. Будучи активизированным, эпифиз, который ещё средневековые ученые считали третьим глазом человека, позволяет увидеть то, что обычными органами зрения увидеть невозможно! Но, к сожалению, первое же испытание резонатора приводит к кошмарным результатам: Тиллингаст попадает в сумасшедший дом, а Преториуса находят обезглавленным на полу собственной лаборатории. Тиллингаста начинают обвинять в убийстве, но он с маниакальным упорством твердит, что голову его шефа откусило отвратительное существо, пробравшееся в их лабораторию с того света…

Сэмпл: http://multi-up.com/1238545
Качество видео: BDRip-AVC
Формат видео: MKV
Видео: 768x416 at 23.976 fps, MPEG-4 AVC, ~1031 kbps
Аудио: 48 kHz, AC3, 2/0 (L,R) ch, ~192 kbps
Формат субтитров: softsub (SRT)

MediaInfo

Format : Matroska
Format version : Version 2
File size : 750 MiB
Duration : 1h 25mn
Overall bit rate : 1 224 Kbps
Movie name : From Beyond (1986)
Encoded date : UTC 2019-08-08 14:51:31
Writing application : mkvmerge v3.4.0 ('Rapunzel') built on May 15 2010 09:38:20
Writing library : libebml v0.8.0 + libmatroska v0.9.0
Video
ID : 1
Format : AVC
Format/Info : Advanced Video Codec
Format profile : High@L4.1
Format settings, CABAC : Yes
Format settings, ReFrames : 10 frames
Codec ID : V_MPEG4/ISO/AVC
Duration : 1h 25mn
Bit rate : 1 031 Kbps
Width : 768 pixels
Height : 416 pixels
Display aspect ratio : 1.85:1
Frame rate mode : Constant
Frame rate : 23.976 fps
Color space : YUV
Chroma subsampling : 4:2:0
Bit depth : 8 bits
Scan type : Progressive
Bits/(Pixel*Frame) : 0.135
Stream size : 617 MiB (82%)
Title : From Beyond
Writing library : x264 core 152 r2851 ba24899
Encoding settings : cabac=1 / ref=10 / deblock=1:-2:-1 / analyse=0x3:0x133 / me=umh / subme=10 / psy=1 / psy_rd=1.00:0.10 / mixed_ref=1 / me_range=32 / chroma_me=1 / trellis=2 / 8x8dct=1 / cqm=0 / deadzone=21,11 / fast_pskip=0 / chroma_qp_offset=-3 / threads=3 / lookahead_threads=1 / sliced_threads=0 / nr=0 / decimate=1 / interlaced=0 / bluray_compat=0 / constrained_intra=0 / bframes=9 / b_pyramid=2 / b_adapt=2 / b_bias=0 / direct=3 / weightb=1 / open_gop=0 / weightp=2 / keyint=240 / keyint_min=23 / scenecut=40 / intra_refresh=0 / rc_lookahead=80 / rc=2pass / mbtree=1 / bitrate=1031 / ratetol=1.0 / qcomp=0.60 / qpmin=0 / qpmax=69 / qpstep=4 / cplxblur=20.0 / qblur=0.5 / ip_ratio=1.40 / aq=1:1.00
Language : English
Default : Yes
Forced : No
Audio
ID : 2
Format : AC-3
Format/Info : Audio Coding 3
Mode extension : CM (complete main)
Format settings, Endianness : Big
Codec ID : A_AC3
Duration : 1h 25mn
Bit rate mode : Constant
Bit rate : 192 Kbps
Channel(s) : 2 channels
Channel positions : Front: L R
Sampling rate : 48.0 KHz
Bit depth : 16 bits
Compression mode : Lossy
Stream size : 118 MiB (16%)
Title : A.Gavrilov
Language : Russian
Default : Yes
Forced : No
Text
ID : 3
Format : UTF-8
Codec ID : S_TEXT/UTF8
Codec ID/Info : UTF-8 Plain Text
Title : Русские
Language : Russian
Default : No
Forced : No

Скриншот c названием фильма

Скриншоты

[ru-zerkalo.org]_t_5764509
Torrent: Registered ·  [ 2019-08-11 12:05 ] ·  b00e72248cbb5d7f1bbaf15b171a4b9e7f5d09e4

15 KB

Status: checked
Completed: 1 times
Size: 750 MB
Rating: 
(Votes: 0)
Say thanks: 0  Thanks
 
Похожие темы
[Profile] [PM]
Display posts from previous:    
Reply to topic

The time now is: Today 15:03

All times are GMT + 7 Hours



You cannot post new topics in this forum
You cannot reply to topics in this forum
You cannot edit your posts in this forum
You cannot delete your posts in this forum
You cannot vote in polls in this forum
You cannot attach files in this forum
You can download files in this forum