Register · 
Username: Password:
 ·  Forgot password?

Автостоянка / Папа угнал автомобиль / Carpool (Артур Хиллер / Arthur Hiller) [1996, США, комедия, приключения, WEB-DLRip] AVO (Василий Горчаков)

Reply to topic
DL-List and Torrent activity [Update пиров]
Size:  745 MB   |    Registered:  6 months 5 days   |    Completed:  0 times

Seeder not seen: Never

 
   
 
 
 
Author Message

FragoMan ®

Gender:

Longevity: 6 years 4 months

Posts: 25034

Post 11-Aug-2019 19:22

[Quote]

Автостоянка / Папа угнал автомобиль / Carpool
Страна: США
Жанр: комедия, приключения
Год выпуска: 1996
Продолжительность: 01:29:34
Перевод: Авторский (одноголосый закадровый) Василий Горчаков
Субтитры: нет
Режиссер: Артур Хиллер / Arthur Hiller
В ролях: Том Арнольд, Дэвид Пэймер, Ри Перлман, Род Стайгер, Ким Коутс, Рэйчел Ли Кук, Мики Ковар, Мика Гарднер, Джордан Варкол
Описание: Владелец парка аттракционов — Фрэнклин Ласло, незадачливый подкаблучник, но добрый малый, решает не упустить шанс и провернуть ограбление, чтобы спасти свое дело от разорения и отношения с маленьким сыном. Маниакальный работоголик Дэниел Миллер в день проведения важнейшей презентации в его рекламном агентстве застревает в пробке со своими двумя шалунами-сыновьями и соседскими ребятишками, которых он везет в школу. Пути героев пересекаются в самый разгар неудачного ограбления, когда Фрэнклин скрывается с места преступления, захватив в заложники Дэниеля и целый фургон с детишками. Тут то и начинается потешная погоня на весь день....

Сэмпл: http://multi-up.com/1238609
Качество видео: WEB-DLRip ( WEB-DL 1080p)
Формат видео: AVI
Видео: XviD 73, 640x368, (1,73:1), 23,976 fps, 962 Кбит/с, 8 бит, 0.17 bit/pixel
Аудио: Русский (АС3, 1 ch (Front: С), 48,0 KHz, 192 Kbps)

MediaInfo

ОбщееПолное имя : D:\Фильмы на трекер\Автостоянка (комедия, приключения 1996 год).aviФормат : AVIФормат/Информация : Audio Video InterleaveРазмер файла : 745 МбайтПродолжительность : 1 ч. 29 м.Общий поток : 1163 Кбит/секПрограмма кодирования : VirtualDubMod 1.5.10.2 (build 2540/release)Библиотека кодирования : VirtualDubMod build 2540/release
ВидеоИдентификатор : 0Формат : MPEG-4 VisualПрофиль формата : Advanced Simple@L5Параметр BVOP формата : 2Параметр QPel формата : НетПараметр GMC формата : Без точки переходаПараметр матрицы формата : ВыборочнаяИдентификатор кодека : XVIDИдентификатор кодека/Подсказка : XviDПродолжительность : 1 ч. 29 м.Битрейт : 962 Кбит/секШирина : 640 пикселейВысота : 368 пикселейСоотношение сторон : 1,739Частота кадров : 23,976 (23976/1000) кадра/секЦветовое пространство : YUVСубдискретизация насыщенности : 4:2:0Битовая глубина : 8 битТип развёртки : ПрогрессивнаяМетод сжатия : С потерямиБит/(Пиксели*Кадры) : 0.170Размер потока : 616 Мбайт (83%)Библиотека кодирования : XviD 73
АудиоИдентификатор : 1Формат : AC-3Формат/Информация : Audio Coding 3Расширение режима : CM (complete main)Параметр Endianness формата : BigИдентификатор кодека : 2000Продолжительность : 1 ч. 29 м.Вид битрейта : ПостоянныйБитрейт : 192 Кбит/секКаналы : 1 каналРасположение каналов : Front: CЧастота : 48,0 КГцЧастота кадров : 31,250 кадров/сек (1536 spf)Метод сжатия : С потерямиРазмер потока : 123 Мбайт (17%)Выравнивание : Разделение по промежуткамПродолжительность промежутка : 42 мс. (1,00 видеокадр)Время предзагрузки промежутка : 500 мс.

Скриншот c названием фильма

Скриншоты

[ru-zerkalo.org]_t_5764881
Torrent: Registered ·  [ 2019-08-11 19:22 ] ·  da730fe8ff1d08854bb9e8409bfab7229444dee4

15 KB

Status: checked
Completed: 0 times
Size: 745 MB
Rating: 
(Votes: 0)
Say thanks: 0  Thanks
 
Похожие темы
[Profile] [PM]
Display posts from previous:    
Reply to topic

The time now is: Today 15:06

All times are GMT + 7 Hours



You cannot post new topics in this forum
You cannot reply to topics in this forum
You cannot edit your posts in this forum
You cannot delete your posts in this forum
You cannot vote in polls in this forum
You cannot attach files in this forum
You can download files in this forum