Register · 
Username: Password:
 ·  Forgot password?

Медведи Камчатки. Начало жизни (Владислав Гришин, Ирина Журавлева) [2019, документальный, WEB-DLRip]

Reply to topic
DL-List and Torrent activity [Update пиров]
Size:  740 MB   |    Registered:  4 months 11 days   |    Completed:  0 times

Seeder not seen: Never

 
   
 
 
 
Author Message

Dimas28 ®

Gender:

Longevity: 6 years 4 months

Posts: 23868

Post 08-Oct-2019 04:38

[Quote]

Медведи Камчатки. Начало жизни
Страна: Россия
Жанр: документальный
Год выпуска: 2019
Продолжительность: 00:52:35-Перевод: Не требуется
Субтитры: нет
Оригинальная аудиодорожка: русский | iTunes-Режиссер: Владислав Гришин, Ирина Журавлева-В ролях: Анатолий Белый-Описание: Документальный фильм рассказывает о первом годе жизни бурых медведей по сценарию, написанному самой природой. На протяжении семи месяцев съёмочная группа наблюдала за несколькими медвежьими семьями на территории Южно-Камчатского федерального заказника им. Т. И. Шпиленка, чтобы запечатлеть тайны взросления одного из самых крупных хищников России. Это особенная картина, которая переносит зрителя в мир вулканов, рек и диких животных - мир, где человеку отведена роль наблюдателя. Цель создателей - погрузить зрителей в атмосферу природного равновесия, которая все ещё сохраняется на заповедных территориях.- -Качество видео: WEB-DLRip
Формат видео: AVI
Видео: 688x384 (1.79:1), 25 fps, XviD build 73 ~1830 kbps avg, 0.28 bit/pixel
Аудио: 48 kHz, MPEG Layer 3, 2 ch, ~128.00 kbps avg-

Сэмпл-

MediaInfo

Формат                                   : AVI
Формат/Информация                        : Audio Video Interleave
Размер файла                             : 740 Мбайт
Продолжительность                        : 52 м. 34 с.
Общий поток                              : 1968 Кбит/сек
Название фильма                          : Медведи Камчатки. Начало жизни_2019_WEB-DLRip
Программа кодирования                    : VirtualDubMod 1.5.10.3 | www.virtualdub-fr.org || (build 2550/release)
Авторское право                          : порошков
Видео
Идентификатор                            : 0
Формат                                   : MPEG-4 Visual
Профиль формата                          : Advanced Simple@L5
Настройки формата                        : BVOP1 / Custom Matrix
Параметр BVOP формата                    : 1
Параметр QPel формата                    : Нет
Параметр GMC формата                     : Без точки перехода
Параметр матрицы формата                 : Выборочная
Идентификатор кодека                     : XVID
Идентификатор кодека/Подсказка           : XviD
Продолжительность                        : 52 м. 34 с.
Битрейт                                  : 1830 Кбит/сек
Ширина                                   : 688 пикселей
Высота                                   : 384 пикселя
Соотношение сторон                       : 16:9
Частота кадров                           : 25,000 кадров/сек
Цветовое пространство                    : YUV
Субдискретизация насыщенности            : 4:2:0
Битовая глубина                          : 8 бит
Тип развёртки                            : Прогрессивная
Метод сжатия                             : С потерями
Бит/(Пиксели*Кадры)                      : 0.277
Размер потока                            : 688 Мбайт (93%)
Библиотека кодирования                   : XviD 73
Аудио
Идентификатор                            : 1
Формат                                   : MPEG Audio
Версия формата                           : Version 1
Профиль формата                          : Layer 3
Идентификатор кодека                     : 55
Идентификатор кодека/Подсказка           : MP3
Продолжительность                        : 52 м. 34 с.
Вид битрейта                             : Постоянный
Битрейт                                  : 128 Кбит/сек
Каналы                                   : 2 канала
Частота                                  : 48,0 КГц
Частота кадров                           : 41,667 кадра/сек (1152 SPF)
Метод сжатия                             : С потерями
Размер потока                            : 48,1 Мбайт (7%)
Выравнивание                             : Соединение по промежуткам
Продолжительность промежутка             : 40  мс. (1,00 видеокадр)
Время предзагрузки промежутка            : 504  мс.
Библиотека кодирования                   : LAME3.99r
Настройки программы                      : -m s -V 4 -q 2 -lowpass 17 -b 128

Скриншоты


[ru-zerkalo.org]_t_5787250
Torrent: Registered ·  [ 2019-10-08 04:38 ] ·  c928e86eba96046ac0dfedcf663bef9fa5235e6b

15 KB

Status: checked
Completed: 0 times
Size: 740 MB
Rating: 
(Votes: 0)
Say thanks: 0  Thanks
 
Похожие темы
[Profile] [PM]
Display posts from previous:    
Reply to topic

The time now is: Today 04:37

All times are GMT + 7 Hours



You cannot post new topics in this forum
You cannot reply to topics in this forum
You cannot edit your posts in this forum
You cannot delete your posts in this forum
You cannot vote in polls in this forum
You cannot attach files in this forum
You can download files in this forum