Register · 
Username: Password:
 ·  Forgot password?

(Ska Punk) Distemper - Мир, разделённый пополам - 2017, FLAC (image+.cue) lossless

Reply to topic
DL-List and Torrent activity [Update пиров]
Size:  454 MB   |    Registered:  3 months 10 days   |    Completed:  0 times

Seeder not seen: Never

 
   
 
 
 
Author Message

FragoMan ®

Gender:

Longevity: 6 years 3 months

Posts: 24922

Post 14-Oct-2019 19:18

[Quote]

Distemper / Мир, разделённый пополам
Жанр: Ska Punk
Страна-производитель диска: Россия
Год издания диска: 2017
Издатель (лейбл): Distemper Records
Страна: Россия
Аудиокодек: FLAC
Тип рипа: image+.cue
Битрейт аудио: lossless
Продолжительность: 45:16
Источник: собственный рип
Наличие сканов в содержимом раздачи: да
Треклист:
1. Дрогнул мир монотонный
2. Мы у жизни не просим прощения
3. Буря
4. Самое лучшее время
5. Дуракам везёт
6. Грубее, чем ты
7. Я люблю этот мир
8. Держи меня покрепче за руку
9. Клан всемирных пьяниц
10. Две вселенные
11. Все пиздят
12. Мир, разделённый пополам

Лог создания рипа

Exact Audio Copy V1.3 from 2. September 2016
Отчёт EAC об извлечении, выполненном 4. сентября 2019, 0:50
Distemper / Мир, разделённый пополам
Дисковод: ATAPI iHAS124 W Adapter: 1 ID: 0
Режим чтения : ДостоверностьИспользование точного потока : ДаОтключение кэша аудио : ДаИспользование указателей C2 : Нет
Коррекция смещения при чтении : 48Способность читать области Lead-in и Lead-out : НетЗаполнение пропущенных сэмплов тишиной : ДаУдаление блоков с тишиной в начале и конце : НетПри вычислениях CRC использовались нулевые сэмплы : ДаИнтерфейс : Встроенный Win32-интерфейс для Win NT/2000
Выходной формат : Пользовательский кодировщикВыбранный битрейт : 128 kBit/sКачество : ВысокийДобавление ID3-тега : ДаУтилита сжатия : C:\Program Files (x86)\Exact Audio Copy\Flac\flac.exeДополнительные параметры : -V -8 -T "Date=%year%" -T "Genre=%genre%" %source%
TOC извлечённого CD
Трек | Старт | Длительность | Начальный сектор | Конечный сектор --------------------------------------------------------------------- 1 | 0:00.00 | 4:14.66 | 0 | 19115 2 | 4:14.66 | 3:18.44 | 19116 | 34009 3 | 7:33.35 | 4:48.51 | 34010 | 55660 4 | 12:22.11 | 3:12.66 | 55661 | 70126 5 | 15:35.02 | 4:32.28 | 70127 | 90554 6 | 20:07.30 | 2:46.70 | 90555 | 103074 7 | 22:54.25 | 3:53.38 | 103075 | 120587 8 | 26:47.63 | 3:00.00 | 120588 | 134087 9 | 29:47.63 | 3:50.24 | 134088 | 151361 10 | 33:38.12 | 3:54.35 | 151362 | 168946 11 | 37:32.47 | 3:19.62 | 168947 | 183933 12 | 40:52.34 | 4:23.19 | 183934 | 203677
Характеристики диапазона извлечения и сообщения об ошибках
Выбранный диапазон
Имя файла C:\Users\Евгений\Desktop\Distemper - 2017 - Мир, разделённый пополам.wav
Пиковый уровень 98.8 % Скорость извлечения 7.4 X Качество диапазона 100.0 % CRC теста E1883571 CRC копии E1883571 Копирование... OK
Ошибок не произошло
AccurateRip: сводка
Трек 1 отсутствует в базе данныхТрек 2 отсутствует в базе данныхТрек 3 отсутствует в базе данныхТрек 4 отсутствует в базе данныхТрек 5 отсутствует в базе данныхТрек 6 отсутствует в базе данныхТрек 7 отсутствует в базе данныхТрек 8 отсутствует в базе данныхТрек 9 отсутствует в базе данныхТрек 10 отсутствует в базе данныхТрек 11 отсутствует в базе данныхТрек 12 отсутствует в базе данных
Ни одного трека нет в базе AccurateRip
Конец отчёта
---- CUETools DB Plugin V2.1.6
[CTDB TOCID: y.h_iyv7KBifWzmqF4NjVnarJ7A-] database access error: Невозможно разрешить удаленное имя: 'db.cuetools.net'
==== Контрольная сумма отчёта E96E2E7E62465AB6B911A605E5610FAA567A8EA0A225AE8A8EA9B39865CA7CB3 ====

Содержание индексной карты (.CUE)

REM DATE 2017REM DISCID A50A9B0CREM COMMENT "ExactAudioCopy v1.3"PERFORMER "Distemper"TITLE "Мир, разделённый пополам"REM COMPOSER ""FILE "Distemper - 2017 - Мир, разделённый пополам.flac" WAVE TRACK 01 AUDIO TITLE "Дрогнул мир монотонный" PERFORMER "Distemper" REM COMPOSER "" INDEX 01 00:00:00 TRACK 02 AUDIO TITLE "Мы у жизни не просмм прощения" PERFORMER "Distemper" REM COMPOSER "" INDEX 01 04:14:66 TRACK 03 AUDIO TITLE "Буря" PERFORMER "Distemper" REM COMPOSER "" INDEX 01 07:33:35 TRACK 04 AUDIO TITLE "Самое лучшее время" PERFORMER "Distemper" REM COMPOSER "" INDEX 01 12:22:11 TRACK 05 AUDIO TITLE "Дуракам везет" PERFORMER "Distemper" REM COMPOSER "" INDEX 01 15:35:02 TRACK 06 AUDIO TITLE "Грубее, чем ты" PERFORMER "Distemper" REM COMPOSER "" INDEX 01 20:07:30 TRACK 07 AUDIO TITLE "Я люблю этот мир" PERFORMER "Distemper" REM COMPOSER "" INDEX 01 22:54:25 TRACK 08 AUDIO TITLE "Держи меня покрепче за руку" PERFORMER "Distemper" REM COMPOSER "" INDEX 01 26:47:63 TRACK 09 AUDIO TITLE "Клан всемирных пьяниц" PERFORMER "Distemper" REM COMPOSER "" INDEX 01 29:47:63 TRACK 10 AUDIO TITLE "Две вселенные" PERFORMER "Distemper" REM COMPOSER "" INDEX 01 33:38:12 TRACK 11 AUDIO TITLE "Все пиздят" PERFORMER "Distemper" REM COMPOSER "" INDEX 01 37:32:47 TRACK 12 AUDIO TITLE "Мир, разделённый пополам" PERFORMER "Distemper" REM COMPOSER "" INDEX 01 40:52:34
[ru-zerkalo.org]_t_5774292
Torrent: Registered ·  [ 2019-10-14 19:17 ] ·  301f2132129b72a7707f15f58d3dec3541fcd0f3

19 KB

Status: checked
Completed: 0 times
Size: 454 MB
Rating: 
(Votes: 0)
Say thanks: 0  Thanks
 
Похожие темы
[Profile] [PM]
Display posts from previous:    
Reply to topic

The time now is: Today 19:32

All times are GMT + 7 Hours



You cannot post new topics in this forum
You cannot reply to topics in this forum
You cannot edit your posts in this forum
You cannot delete your posts in this forum
You cannot vote in polls in this forum
You cannot attach files in this forum
You can download files in this forum