Register · 
Username: Password:
 ·  Forgot password?

Лицо со Шрамом / Scarface (Брайан Де Пальма / Brian De Palma) [1983, США, драма, криминал, BDRip] [REMASTERED] MVO (Позитив Мультимедиа)

Reply to topic
DL-List and Torrent activity [Update пиров]
Size:  1.46 GB   |    Registered:  4 months 4 days   |    Completed:  1 time

Seeder not seen: 3 months 30 days

 
   
 
 
 
Author Message

Andrew1225 ®

Gender:

Longevity: 6 years 4 months

Posts: 17668

Post 17-Oct-2019 02:35

[Quote]

Лицо со Шрамом / Scarface- Год выпуска: 1983
Страна: США
Жанр: драма, криминал
Продолжительность: 02:49:53
Перевод: Профессиональный (многоголосый закадровый) Позитив Мультимедиа
Субтитры: нет-Режиссер:
Брайан Де Пальма / Brian De Palma-В ролях:
Аль Пачино (Tony Montana), Стивен Бауэр (Manny Ribera), Мишель Пфайффер (Elvira Hancock), Мэри Элизабет Мастрантонио (Gina Montana), Роберт Лоджа (Frank Lopez), Мириам Колон (Mama Montana), Ф. Мюррэй Абрахам (Omar Suarez), Пол Шенар (Alejandro Sosa), Харрис Юлин (Mel Bernstein), Анхель Саласар (Chi Chi), Арнальдо Сантана (Ernie), Пепе Серна (Angel)-Описание:
Весной 1980 года был открыт порт Мэйриэл Харбор, и тысячи кубинских беженцев ринулись в Соединенные Штаты на поиски Американской Мечты. Один из них нашел ее на залитых солнцем улицах Майами. Богатство, власть и страсть превзошли даже самые невероятные его мечты. Его звали Тони Монтана. Мир запомнил его под другим именем — «Лицо со шрамом»…-
| | IMDB | КиноПоиск | Сэмпл |-Качество: BDRip [Scarface.1983.REMASTERED.COMPLETE.BLURAY-PCH]
Формат: AVI
Видео: 720x304 (2.37:1), 23.976 fps, XviD build 73 ~1092 kbps avg, 0.21 bit/pixel
Аудио: 48 kHz, MPEG Layer 3, 2 ch, ~128.00 kbps avg-
- MediaInfo">

Скриншоты - MediaInfo

Общее
Полное имя                               : D:\Scarface_1983_BDRip_by_Dalemake.avi
Формат                                   : AVI
Формат/Информация                        : Audio Video Interleave
Размер файла                             : 1,46 Гбайт
Продолжительность                        : 2 ч. 49 м.
Общий поток                              : 1230 Кбит/сек
Программа кодирования                    : VirtualDubMod 1.5.10.3 | www.virtualdub-fr.org || (build 2550/release)
Библиотека кодирования                   : VirtualDubMod build 2550/release
Видео
Идентификатор                            : 0
Формат                                   : MPEG-4 Visual
Профиль формата                          : Advanced Simple@L5
Настройки формата                        : BVOP1 / Custom Matrix
Параметр BVOP формата                    : 1
Параметр QPel формата                    : Нет
Параметр GMC формата                     : Без точки перехода
Параметр матрицы формата                 : Выборочная
Идентификатор кодека                     : XVID
Идентификатор кодека/Подсказка           : XviD
Продолжительность                        : 2 ч. 49 м.
Битрейт                                  : 1093 Кбит/сек
Ширина                                   : 720 пикселей
Высота                                   : 304 пикселя
Соотношение сторон                       : 2,35:1
Частота кадров                           : 23,976 (24000/1001) кадра/сек
Цветовое пространство                    : YUV
Субдискретизация насыщенности            : 4:2:0
Битовая глубина                          : 8 бит
Тип развёртки                            : Прогрессивная
Метод сжатия                             : С потерями
Бит/(Пиксели*Кадры)                      : 0.208
Размер потока                            : 1,30 Гбайт (89%)
Библиотека кодирования                   : XviD 73
Аудио
Идентификатор                            : 1
Формат                                   : MPEG Audio
Версия формата                           : Version 1
Профиль формата                          : Layer 3
Идентификатор кодека                     : 55
Идентификатор кодека/Подсказка           : MP3
Продолжительность                        : 2 ч. 49 м.
Вид битрейта                             : Постоянный
Битрейт                                  : 128 Кбит/сек
Каналы                                   : 2 канала
Частота                                  : 48,0 КГц
Частота кадров                           : 41,667 кадра/сек (1152 SPF)
Метод сжатия                             : С потерями
Размер потока                            : 156 Мбайт (10%)
Выравнивание                             : Соединение по промежуткам
Продолжительность промежутка             : 42  мс. (1,00 видеокадр)
Время предзагрузки промежутка            : 504  мс.
Библиотека кодирования                   : LAME3.99r
Настройки программы                      : -m s -V 4 -q 2 -lowpass 17 -b 128

REMASTERED

http:///forum/viewtopic.php?t=3934596 - не для поглощения!
BD Old vs. REMASTERED




http:///forum/viewtopic.php?t=2265465 - перевод одинаковый
HDTV vs. REMASTERED




-
[ru-zerkalo.org]_t_5792157
Torrent: Registered ·  [ 2019-10-17 02:35 ] ·  9cb086b9eff18cead3ee778b96642c59fa1b255e

15 KB

Status: checked
Completed: 1 times
Size: 1.46 GB
Rating: 
(Votes: 0)
Say thanks: 0  Thanks
 
Похожие темы
[Profile] [PM]
Display posts from previous:    
Reply to topic

The time now is: Today 04:52

All times are GMT + 7 Hours



You cannot post new topics in this forum
You cannot reply to topics in this forum
You cannot edit your posts in this forum
You cannot delete your posts in this forum
You cannot vote in polls in this forum
You cannot attach files in this forum
You can download files in this forum