Register · 
Username: Password:
 ·  Forgot password?

(Smooth Jazz, Easy Listening) [CD] Dave Hoffman - From Energy to Stillness - 1994, FLAC (image+.cue), lossless

Reply to topic
DL-List and Torrent activity [Update пиров]
Size:  333 MB   |    Registered:  2 months 23 days   |    Completed:  1 time

Seeder not seen: 5 days

 
   
 
 
 
Author Message

god56 ®

Gender:

Longevity: 6 years 3 months

Posts: 26126

Post 31-Oct-2019 23:11

[Quote]

Dave Hoffman / From Energy to Stillness
Жанр: Smooth Jazz, Easy Listening
Носитель: CD
Страна-производитель диска (релиза): US
Год издания: 1994
Издатель (лейбл): LAKE FRONT PRODUCTION
Аудиокодек: FLAC (*.flac)
Тип рипа: image+.cue
Продолжительность: 00:53:15
Источник: собственный рип
Наличие сканов в содержимом раздачи: нет
Треклист:
1. The Whirling Herbert 6:18
2. For You Freely 3:19
3. Evening Evershine 5:30
4. A Soft And Embered Face 6:35
5. An Interlude Again 2:20
6. The Province of the Plains 4:46
7. Dancing and Ascending 4:13
8. In The Distance 7:50
9. Traveling by Water 12:02

Лог создания рипа

Exact Audio Copy V1.1 from 23. June 2015
EAC extraction logfile from 18. March 2019, 20:38
Dave Hoffman / From Energy To Stillness
Used drive : PIONEER BD-RW BDR-208M Adapter: 1 ID: 0
Read mode : SecureUtilize accurate stream : YesDefeat audio cache : YesMake use of C2 pointers : No
Read offset correction : 667Overread into Lead-In and Lead-Out : NoFill up missing offset samples with silence : YesDelete leading and trailing silent blocks : NoNull samples used in CRC calculations : YesUsed interface : Native Win32 interface for Win NT & 2000
Used output format : User Defined EncoderSelected bitrate : 1024 kBit/sQuality : HighAdd ID3 tag : NoCommand line compressor : C:\Program Files (x86)\Exact Audio Copy\Flac\flac.exeAdditional command line options : -V -8 -T "Date=%year%" -T "Genre=%genre%" %source%
TOC of the extracted CD
Track | Start | Length | Start sector | End sector --------------------------------------------------------- 1 | 0:00.30 | 6:18.18 | 30 | 28397 2 | 6:18.48 | 3:19.24 | 28398 | 43346 3 | 9:37.72 | 5:29.70 | 43347 | 68091 4 | 15:07.67 | 6:55.35 | 68092 | 99251 5 | 22:03.27 | 2:20.08 | 99252 | 109759 6 | 24:23.35 | 4:46.13 | 109760 | 131222 7 | 29:09.48 | 4:13.30 | 131223 | 150227 8 | 33:23.03 | 7:49.43 | 150228 | 185445 9 | 41:12.46 | 12:02.21 | 185446 | 239616
Range status and errors
Selected range
Filename C:\Users\jean-mini\Music\Dave Hoffman - From Energy To Stillness.wav
Peak level 100.0 % Extraction speed 6.8 X Range quality 100.0 % Test CRC 962FB882 Copy CRC 962FB882 Copy OK
No errors occurred
AccurateRip summary
Track 1 not present in databaseTrack 2 not present in databaseTrack 3 not present in databaseTrack 4 not present in databaseTrack 5 not present in databaseTrack 6 not present in databaseTrack 7 not present in databaseTrack 8 not present in databaseTrack 9 not present in database
None of the tracks are present in the AccurateRip database
End of status report
---- CUETools DB Plugin V2.1.6
[CTDB TOCID: scSO32yM5UvPMLgTxbCLqcO832k-] disk not present in databaseSubmit result: scSO32yM5UvPMLgTxbCLqcO832k- has been uploaded
Доп. информация:
[ru-zerkalo.org]_t_5751139
Torrent: Registered ·  [ 2019-10-31 23:07 ] ·  498c5086011274231b8d8a64b900b9d174204e8a

14 KB

Status: checked
Completed: 1 times
Size: 333 MB
Rating: 
(Votes: 0)
Say thanks: 0  Thanks
 
Похожие темы
[Profile] [PM]
Display posts from previous:    
Reply to topic

The time now is: Today 07:12

All times are GMT + 7 Hours



You cannot post new topics in this forum
You cannot reply to topics in this forum
You cannot edit your posts in this forum
You cannot delete your posts in this forum
You cannot vote in polls in this forum
You cannot attach files in this forum
You can download files in this forum