Register · 
Username: Password:
 ·  Forgot password?

(Grindcore) [CD] Gang Up On Against - The rain of sloughter in 88seconds and a lot of our dics - 2004, FLAC (image+.cue), lossless

Reply to topic
DL-List and Torrent activity [Update пиров]
Size:  127 MB   |    Registered:  1 month 4 days   |    Completed:  0 times

Seeder not seen: Never

 
   
 
 
 
Author Message

kadSM ®

Gender:

Longevity: 6 years 2 months

Posts: 19179

Post 07-Nov-2019 21:58

[Quote]

Gang Up On Against / The rain of sloughter in 88seconds and a lot of our dics
Жанр: Grindcore
Носитель: CD
Страна-производитель диска (релиза): Japan
Год издания: 2004
Издатель (лейбл): Juke Boxxx Record
Номер по каталогу: JB-036
Страна исполнителя (группы): Japan
Аудиокодек: FLAC (*.flac)
Тип рипа: image+.cue
Продолжительность: 00:12:38
Источник: собственный рип
Наличие сканов в содержимом раздачи: да
Треклист:
1 24 Hours 02:46
2 My Name Is DOG 01:33
3 Human, Scum, Still 010:06
4 Escape For Contradiction 00:54
5 GxA 00:45
6 Empty 01:26
7 Negative Vibration 01:14
8 Dope Heads 01:30
9 Destroy Pt. II 01:23

Лог создания рипа

Exact Audio Copy V1.3 from 2. September 2016
EAC extraction logfile from 23. July 2019, 10:47
Gang Up On Against / The rain of sloughter in 88seconds and a lot of our dics
Used drive : ATAPI iHAS124 E Adapter: 1 ID: 0
Read mode : SecureUtilize accurate stream : YesDefeat audio cache : YesMake use of C2 pointers : No
Read offset correction : 6Overread into Lead-In and Lead-Out : NoFill up missing offset samples with silence : YesDelete leading and trailing silent blocks : NoNull samples used in CRC calculations : YesUsed interface : Native Win32 interface for Win NT & 2000
Used output format : User Defined EncoderSelected bitrate : 1024 kBit/sQuality : HighAdd ID3 tag : NoCommand line compressor : C:\Program Files\Exact Audio Copy\Flac\flac.exeAdditional command line options : -V -8 -T "Date=%year%" -T "Genre=%genre%" %source%
TOC of the extracted CD
Track | Start | Length | Start sector | End sector --------------------------------------------------------- 1 | 0:00.00 | 2:46.15 | 0 | 12464 2 | 2:46.15 | 1:33.02 | 12465 | 19441 3 | 4:19.17 | 1:05.63 | 19442 | 24379 4 | 5:25.05 | 0:53.69 | 24380 | 28423 5 | 6:18.74 | 0:45.33 | 28424 | 31831 6 | 7:04.32 | 1:25.45 | 31832 | 38251 7 | 8:30.02 | 1:14.10 | 38252 | 43811 8 | 9:44.12 | 1:30.26 | 43812 | 50587 9 | 11:14.38 | 1:23.07 | 50588 | 56819
Range status and errors
Selected range
Filename C:\EAC\vampire_71\Gang Up On Against - The rain of sloughter in 88seconds and a lot of our dics.wav
Peak level 100.0 % Extraction speed 5.8 X Range quality 99.9 % Test CRC DB81B1A4 Copy CRC DB81B1A4 Copy OK
No errors occurred
AccurateRip summary
Track 1 not present in databaseTrack 2 not present in databaseTrack 3 not present in databaseTrack 4 not present in databaseTrack 5 not present in databaseTrack 6 not present in databaseTrack 7 not present in databaseTrack 8 not present in databaseTrack 9 not present in database
None of the tracks are present in the AccurateRip database
End of status report
---- CUETools DB Plugin V2.1.6
[CTDB TOCID: 1CbypEdlfKN56k2qiF16v7iA4dg-] foundSubmit result: already submittedTrack | CTDB Status 1 | (1/1) Accurately ripped 2 | (1/1) Accurately ripped 3 | (1/1) Accurately ripped 4 | (1/1) Accurately ripped 5 | (1/1) Accurately ripped 6 | (1/1) Accurately ripped 7 | (1/1) Accurately ripped 8 | (1/1) Accurately ripped 9 | (1/1) Accurately ripped
==== Log checksum BFD68FDE01A26A3837001CEB4EE64AECCECE3367550A4F019F05A50748C58F75 ====
Доп. информация: http://youtu.be/Anm6F4OFNRI
[ru-zerkalo.org]_t_5757170
Torrent: Registered ·  [ 2019-11-07 21:51 ] ·  739dbb152ab477c6cb41373686a5c0cf50103b5f

22 KB

Status: checked
Completed: 0 times
Size: 127 MB
Rating: 
(Votes: 0)
Say thanks: 0  Thanks
 
Похожие темы
[Profile] [PM]
Display posts from previous:    
Reply to topic

The time now is: Today 21:35

All times are GMT + 7 Hours



You cannot post new topics in this forum
You cannot reply to topics in this forum
You cannot edit your posts in this forum
You cannot delete your posts in this forum
You cannot vote in polls in this forum
You cannot attach files in this forum
You can download files in this forum