Register · 
Username: Password:
 ·  Forgot password?

(Alternative Rock) [CD] Third Eye Blind - Screamer - 2019, FLAC (tracks), lossless

Reply to topic
DL-List and Torrent activity [Update пиров]
Size:  254 MB   |    Registered:  2 months 16 days   |    Completed:  0 times

Seeder not seen: Never

 
   
 
 
 
Author Message

Andrew1225 ®

Gender:

Longevity: 6 years 3 months

Posts: 17561

Post 07-Nov-2019 22:02

[Quote]

Third Eye Blind - Screamer- Жанр: Alternative Rock
Носитель: CD
Год издания: 2019-10-18
Издатель-лейбл: Mega Collider Records
Страна исполнителя: US
Аудиокодек: FLAC (*.flac)
Тип рипа: tracks
Битрейт аудио: lossless
Продолжительность: 00:38:37
ёр: PERFECT
Наличие сканов: NO

Треклист:
01. Screamer (Feat. Alexis Krauss) (2:58)
02. The Kids Are Coming (To Take You Down) (2:47)
03. Ways (Feat. Carlie Hanson) (2:51)
04. Tropic Scorpio (3:11)
05. Walk Like Kings (3:22)
06. Turn Me On (4:05)
07. Got So High (3:28)
08. Who Am I (2:32)
09. Light It Up (3:48)
10. 2x Tigers (3:51)
11. Take A Side (2:52)
12. Who Am I (Acoustic) (2:52)

auCDtect

CUE Corrector v. 8.3.5 / b. 929 (Sep. 27, 2019)————————————————————————————————————————————————————————————————————————Third Eye Blind / Screamer
Folder: Third Eye Blind - 2019 - Screamer [CD-FLAC]Audio files: 01 Screamer (Feat. Alexis Krauss).flac [02:58.373; FLAC • 1077 kbps • 16 bit \ 44100 Hz • stereo; 22.92 MB (24 031 326 B)] 02 The Kids Are Coming (To Take You Down).flac [02:47.093; FLAC • 1022 kbps • 16 bit \ 44100 Hz • stereo; 20.37 MB (21 354 834 B)] 03 Ways (Feat. Carlie Hanson).flac [02:51.453; FLAC • 937 kbps • 16 bit \ 44100 Hz • stereo; 19.16 MB (20 086 894 B)] 04 Tropic Scorpio.flac [03:10.707; FLAC • 974 kbps • 16 bit \ 44100 Hz • stereo; 22.16 MB (23 234 362 B)] 05 Walk Like Kings.flac [03:22.227; FLAC • 900 kbps • 16 bit \ 44100 Hz • stereo; 21.72 MB (22 774 068 B)] 06 Turn Me On.flac [04:04.533; FLAC • 936 kbps • 16 bit \ 44100 Hz • stereo; 27.30 MB (28 631 181 B)] 07 Got So High.flac [03:28.453; FLAC • 951 kbps • 16 bit \ 44100 Hz • stereo; 23.64 MB (24 790 030 B)] 08 Who Am I.flac [02:32.040; FLAC • 795 kbps • 16 bit \ 44100 Hz • stereo; 14.42 MB (15 124 084 B)] 09 Light It Up.flac [03:47.800; FLAC • 883 kbps • 16 bit \ 44100 Hz • stereo; 24.00 MB (25 170 006 B)] 10 2x Tigers.flac [03:51.173; FLAC • 850 kbps • 16 bit \ 44100 Hz • stereo; 23.43 MB (24 571 444 B)] 11 Take A Side.flac [02:52.320; FLAC • 874 kbps • 16 bit \ 44100 Hz • stereo; 17.97 MB (18 840 872 B)] 12 Who Am I (Acoustic).flac [02:51.773; FLAC • 848 kbps • 16 bit \ 44100 Hz • stereo; 17.37 MB (18 212 038 B)]
Accuracy: -m0
File 01 Screamer (Feat. Alexis Krauss) - 100% CDDA [02:58:28]File 02 The Kids Are Coming (To Take You Down) - 100% CDDA [02:47:07]File 03 Ways (Feat. Carlie Hanson) - 100% CDDA [02:51:34]File 04 Tropic Scorpio - 100% CDDA [03:10:53]File 05 Walk Like Kings - 100% CDDA [03:22:17]File 06 Turn Me On - 100% CDDA [04:04:40]File 07 Got So High - 100% CDDA [03:28:34]File 08 Who Am I - 94% CDDA [02:32:03]File 09 Light It Up - 100% CDDA [03:47:60]File 10 2x Tigers - 95% MPEG [03:51:13]File 11 Take A Side - 99% CDDA [02:52:24]File 12 Who Am I (Acoustic) - 95% MPEG [02:51:58]————— Summary: —————These tracks looks like CDDA with probability 100%.———————————————————————————————————————————————————————————————————————— ANALYZER: auCDtect: CD records authenticity detector, version 0.8.2 Copyright (c) 2004 Oleg Berngardt. All rights reserved. Copyright (c) 2004 Alexander Djourik. All rights reserved.
Time elapsed: 1 m 36 sLog created at October 13, 2019 09:53:49
=== 8A92665ED50745E39FE48564243A4058F4B9C95562BE12C5AA09953FC499EDC4 ===

CUETools

[CUETools log; Date: 13.10.2019 9:49:43; Version: 2.1.6][CTDB TOCID: i1yacbrr5deuyNkf76RPby6FiZ4-] disk not present in database.[AccurateRip ID: 001104bd-00a05583-9f090d0c] disk not present in database.
Track Peak [ CRC32 ] [W/O NULL] -- 100,0 [827F06AB] [206157D7] 01 100,0 [BD848F1F] [FE48A97A] 02 99,8 [05EEB36C] [2E17FF50] 03 100,0 [30015FC7] [64226922] 04 100,0 [31B1D76B] [1CFFA2A7] 05 100,0 [B5E54F5F] [CD87F74A] 06 100,0 [E921D8C0] [E0FFB1EC] 07 100,0 [BFC987F8] [6C750D02] 08 100,0 [D176C06F] [4FB77C33] 09 100,0 [CBA3EEDC] [0E97E30D] 10 100,0 [18D2FA2A] [B4BD31EA] 11 100,0 [7EFD8814] [82C23DFE] 12 100,0 [F12800DA] [FEA680D5]

DR

foobar2000 1.4.6 / Замер динамического диапазона (DR) 1.1.1Дата отчёта: 2019-10-13 09:49:19
--------------------------------------------------------------------------------Анализ: Third Eye Blind / Screamer--------------------------------------------------------------------------------
DR Пики RMS Продолжительность трека--------------------------------------------------------------------------------DR5 0.00 дБ -7.25 дБ 2:58 01-Screamer (Feat. Alexis Krauss)DR5 -0.01 дБ -6.96 дБ 2:47 02-The Kids Are Coming (To Take You Down)DR6 0.00 дБ -7.56 дБ 2:51 03-Ways (Feat. Carlie Hanson)DR6 0.00 дБ -7.54 дБ 3:11 04-Tropic ScorpioDR6 0.00 дБ -8.22 дБ 3:22 05-Walk Like KingsDR5 0.00 дБ -7.76 дБ 4:05 06-Turn Me OnDR5 0.00 дБ -7.01 дБ 3:28 07-Got So HighDR6 0.00 дБ -7.63 дБ 2:32 08-Who Am IDR6 0.00 дБ -8.98 дБ 3:48 09-Light It UpDR6 0.00 дБ -8.09 дБ 3:51 10-2x TigersDR7 0.00 дБ -9.13 дБ 2:52 11-Take A SideDR10 0.00 дБ -11.10 дБ 2:52 12-Who Am I (Acoustic)--------------------------------------------------------------------------------
Количество треков: 12Реальные значения DR: DR6
Частота: 44100 ГцКаналов: 2Разрядность: 16Битрейт: 841 кбит/сКодек: FLAC================================================================================
[ru-zerkalo.org]_t_5790650
Torrent: Registered ·  [ 2019-11-07 21:51 ] ·  3187ddd084f2ed9e15936526f120cde929f71dc5

21 KB

Status: checked
Completed: 0 times
Size: 254 MB
Rating: 
(Votes: 0)
Say thanks: 0  Thanks
 
Похожие темы
[Profile] [PM]
Display posts from previous:    
Reply to topic

The time now is: Today 07:16

All times are GMT + 7 Hours



You cannot post new topics in this forum
You cannot reply to topics in this forum
You cannot edit your posts in this forum
You cannot delete your posts in this forum
You cannot vote in polls in this forum
You cannot attach files in this forum
You can download files in this forum