Register · 
Username: Password:
 ·  Forgot password?

[SACD-R][OF] Kenny Burrell with Coleman Hawkins - Bluesey Burrell - 1963/2019 (Bop, Post Bop)

Reply to topic
DL-List and Torrent activity [Update пиров]
Size:  1.39 GB   |    Registered:  1 month 3 days   |    Completed:  0 times

Seeder not seen: Never

 
   
 
 
 
Author Message

ANTON1404 ®

Gender:

Longevity: 6 years 2 months

Posts: 18271

Post 08-Nov-2019 23:35

[Quote]

Kenny Burrell with Coleman Hawkins / Bluesey Burrell- Формат записи/Источник записи: [SACD-R][OF]
Наличие водяных знаков: Нет
Год издания/переиздания диска: 1963/2019
Жанр: Bop, Post Bop
Издатель (лейбл): Moodsville, Prestige / Analogue Productions
Продолжительность: 00:34:32
Наличие сканов в содержимом раздачи: Только обложка альбома-Треклист:
1. Tres Talbras
2. No More
3. Guilty
4. Montono Blues
5. I Thought About You
6. Out Of This World
7. It's Getting Dark-Musicians:
Kenny Burrell, guitar
Coleman Hawkins, tenor sax
Tommy Flanagan, piano
Major Holey, bass
Eddie Locke, drums
Ray Barretto, conga-Контейнер: ISO (*.iso)
Тип рипа: image
Разрядность: 64(2,8 MHz/1 Bit)
Формат: DSD
Количество каналов: 2.0-Доп. информация: APSAP29
Recorded at Van Gelder Studio, Englewood Cliffs, New Jersey
Mastered By Kevin Gray From Original Analog Master Tapes!
Источник (релизер): jazzyman (PS³SACD)
http://elusivedisc.com/kenny-burrell-bluesy-burrell-hybrid-stereo-sacd/

Лог DR

foobar2000 1.3.13 / Замер динамического диапазона (DR) 1.1.1Дата отчёта: 2019-11-07 03:16:37
--------------------------------------------------------------------------------Анализ: Kenny Burrell / Bluesy Burrell--------------------------------------------------------------------------------
DR Пики RMS Продолжительность трека--------------------------------------------------------------------------------DR13 -8.92 дБ -27.40 дБ 6:50 01-Tres PalabrasDR14 -15.37 дБ -34.04 дБ 1:54 02-No MoreDR14 -16.12 дБ -34.11 дБ 4:19 03-GuiltyDR14 -7.86 дБ -26.63 дБ 4:48 04-Montono BluesDR13 -7.92 дБ -26.31 дБ 4:43 05-I Thought About YouDR14 -9.73 дБ -28.10 дБ 4:58 06-Out of this WorldDR13 -7.67 дБ -26.77 дБ 7:00 07-It's Getting Dark--------------------------------------------------------------------------------
Количество треков: 7Реальные значения DR: DR13
Частота: 2822400 Гц / Частота PCM: 88200 ГцКаналов: 2Разрядность: 24Битрейт: 5645 кбит/сКодек: DSD64================================================================================

Об альбоме (сборнике)

Analogue Productions releases 25 of the most collectible, rarest, most audiophile-sounding Rudy Van Gelder recordings ever made in their Prestige Stereo Series on Hybrid Stereo SACD.
This session is a model of the emotionally intense ballad programs featured on Prestige's Moodsville subsidiary. The great Kenny Burrell receives a major assist from saxophone patriarch Coleman Hawkins (who is in exemplary early-Sixties form), Hawkins's rhythm section of the time (made up exclusively of natives of Burrell's hometown Detroit) and conga drummer Ray Barretto. The choice of material and variety of settings are inspired, with Burrell heard solo on "No More," over just bass and drums on "Guilty," in two different quintet settings and on three titles by the full sextet. Each soloist is fully engaged throughout, with things shifting into even higher gear when Burrell and Hawkins converse on "Montono Blues" and "I Thought About You." With Coleman Hawkins, Tommy Flanagan, Major Holley, Eddie Locke and Ray Barretto.
[ru-zerkalo.org]_t_5801909
Torrent: Registered ·  [ 2019-11-08 23:35 ] ·  ff924e17181847ca2309cb91c48320d97b438b26

15 KB

Status: checked
Completed: 0 times
Size: 1.39 GB
Rating: 
(Votes: 0)
Say thanks: 0  Thanks
 
Похожие темы
[Profile] [PM]
Display posts from previous:    
Reply to topic

The time now is: Today 21:35

All times are GMT + 7 Hours



You cannot post new topics in this forum
You cannot reply to topics in this forum
You cannot edit your posts in this forum
You cannot delete your posts in this forum
You cannot vote in polls in this forum
You cannot attach files in this forum
You can download files in this forum