Register · 
Username: Password:
 ·  Forgot password?

(Instrumental Rock) [CD] Tamas Szekeres - White Shapes Of Blue - 2019, FLAC (tracks+.cue), lossless

Reply to topic
DL-List and Torrent activity [Update пиров]
Size:  345 MB   |    Registered:  2 months 5 days   |    Completed:  0 times

Seeder not seen: Never

 
   
 
 
 
Author Message

Andrew1225 ®

Gender:

Longevity: 6 years 3 months

Posts: 17541

Post 15-Nov-2019 02:05

[Quote]

Tamas Szekeres
White Shapes Of Blue


Жанр: Instrumental Rock
Носитель: CD
Страна-производитель диска (релиза): Hungary
Год издания: 2019
Издатель (лейбл): GrundRecords
Номер по каталогу: GR151
Страна исполнителя (группы): Hungary
Аудиокодек: FLAC (*.flac)
Тип рипа: tracks+.cue
Продолжительность: 00:47:00
Источник: Nafta Music
Наличие сканов в содержимом раздачи: да
Корректность рипа: В оригинале не было применено сжатие при конвертировании во Флак (FLAC Level 0). Для приведения в соответствие правилам пережато во FLAC Level 5 с сохранением тэгов


01 - Viking Kong (00:05:00)
02 - Irish Leg (00:04:51)
03 - The Immigrant Identity (00:03:27)
04 - Joy Of Perspective (00:02:50)
05 - Dorian Example (00:01:13)
06 - Still Loving You (00:05:04)
07 - Planned Emotions (00:05:05)
08 - Further On Up The Road (00:03:13)
09 - White Shapes Of Blue (00:04:28)
10 - Feeling Of Wellbeing (00:03:22)
11 - Awakening (00:04:10)
12 - Maybe Tomorrow (00:04:16)

Лог создания рипа

Exact Audio Copy V1.3 from 2. September 2016
EAC extraction logfile from 12. November 2019, 19:58
Szekeres Tamás / White Shapes Of Blue
Used drive : PLEXTOR PX-891SAF PLUS Adapter: 1 ID: 0
Read mode : SecureUtilize accurate stream : YesDefeat audio cache : YesMake use of C2 pointers : No
Read offset correction : 6Overread into Lead-In and Lead-Out : NoFill up missing offset samples with silence : YesDelete leading and trailing silent blocks : NoNull samples used in CRC calculations : YesUsed interface : Native Win32 interface for Win NT & 2000Gap handling : Appended to previous track
Used output format : User Defined EncoderSelected bitrate : 1024 kBit/sQuality : HighAdd ID3 tag : NoCommand line compressor : C:\Program Files (x86)\Exact Audio Copy\Flac\flac.exeAdditional command line options : -0 -V -T "ARTIST=%artist%" -T "TITLE=%title%" -T "ALBUM=%albumtitle%" -T "DATE=%year%" -T "TRACKNUMBER=%tracknr%" -T "TOTALTRACKS=%numtracks%" -T "GENRE=%genre%" -T "COMMENT=Naftamusic Release!" %source%
TOC of the extracted CD
Track | Start | Length | Start sector | End sector --------------------------------------------------------- 1 | 0:00.00 | 4:59.53 | 0 | 22477 2 | 4:59.53 | 4:50.74 | 22478 | 44301 3 | 9:50.52 | 3:27.01 | 44302 | 59827 4 | 13:17.53 | 2:50.13 | 59828 | 72590 5 | 16:07.66 | 1:13.16 | 72591 | 78081 6 | 17:21.07 | 5:04.22 | 78082 | 100903 7 | 22:25.29 | 5:04.52 | 100904 | 123755 8 | 27:30.06 | 3:12.66 | 123756 | 138221 9 | 30:42.72 | 4:27.64 | 138222 | 158310 10 | 35:10.61 | 3:22.08 | 158311 | 173468 11 | 38:32.69 | 4:10.07 | 173469 | 192225 12 | 42:43.01 | 4:16.37 | 192226 | 211462
Track 1
Filename E:\Nafta Releases\Szekeres Tamás - White Shapes Of Blue (2019)[FLAC] - Naftamusic\01 - Viking Kong.wav
Pre-gap length 0:00:02.00
Peak level 96.3 % Extraction speed 2.7 X Track quality 100.0 % Test CRC 3EF080FD Copy CRC 3EF080FD Track not present in AccurateRip database Copy OK
Track 2
Filename E:\Nafta Releases\Szekeres Tamás - White Shapes Of Blue (2019)[FLAC] - Naftamusic\02 - Irish Leg.wav
Peak level 97.7 % Extraction speed 3.1 X Track quality 100.0 % Test CRC CD3406CD Copy CRC CD3406CD Track not present in AccurateRip database Copy OK
Track 3
Filename E:\Nafta Releases\Szekeres Tamás - White Shapes Of Blue (2019)[FLAC] - Naftamusic\03 - The Immigrant Identity.wav
Peak level 91.4 % Extraction speed 3.2 X Track quality 100.0 % Test CRC 71CA66EA Copy CRC 71CA66EA Track not present in AccurateRip database Copy OK
Track 4
Filename E:\Nafta Releases\Szekeres Tamás - White Shapes Of Blue (2019)[FLAC] - Naftamusic\04 - Joy Of Perspective.wav
Peak level 97.7 % Extraction speed 3.3 X Track quality 100.0 % Test CRC FAD18304 Copy CRC FAD18304 Track not present in AccurateRip database Copy OK
Track 5
Filename E:\Nafta Releases\Szekeres Tamás - White Shapes Of Blue (2019)[FLAC] - Naftamusic\05 - Dorian Example.wav
Peak level 97.7 % Extraction speed 2.7 X Track quality 100.0 % Test CRC 471AEFD9 Copy CRC 471AEFD9 Track not present in AccurateRip database Copy OK
Track 6
Filename E:\Nafta Releases\Szekeres Tamás - White Shapes Of Blue (2019)[FLAC] - Naftamusic\06 - Still Loving You.wav
Peak level 97.7 % Extraction speed 3.9 X Track quality 100.0 % Test CRC E55D85E5 Copy CRC E55D85E5 Track not present in AccurateRip database Copy OK
Track 7
Filename E:\Nafta Releases\Szekeres Tamás - White Shapes Of Blue (2019)[FLAC] - Naftamusic\07 - Planned Emotions.wav
Peak level 97.7 % Extraction speed 4.1 X Track quality 100.0 % Test CRC 3E3A8CD4 Copy CRC 3E3A8CD4 Track not present in AccurateRip database Copy OK
Track 8
Filename E:\Nafta Releases\Szekeres Tamás - White Shapes Of Blue (2019)[FLAC] - Naftamusic\08 - Further On Up The Road.wav
Peak level 97.7 % Extraction speed 3.1 X Track quality 99.9 % Test CRC 6EFD842E Copy CRC 6EFD842E Track not present in AccurateRip database Copy OK
Track 9
Filename E:\Nafta Releases\Szekeres Tamás - White Shapes Of Blue (2019)[FLAC] - Naftamusic\09 - White Shapes Of Blue.wav
Peak level 97.7 % Extraction speed 4.4 X Track quality 100.0 % Test CRC 37F38F5F Copy CRC 37F38F5F Track not present in AccurateRip database Copy OK
Track 10
Filename E:\Nafta Releases\Szekeres Tamás - White Shapes Of Blue (2019)[FLAC] - Naftamusic\10 - Feeling Of Wellbeing.wav
Peak level 97.7 % Extraction speed 4.4 X Track quality 100.0 % Test CRC 591FBB56 Copy CRC 591FBB56 Track not present in AccurateRip database Copy OK
Track 11
Filename E:\Nafta Releases\Szekeres Tamás - White Shapes Of Blue (2019)[FLAC] - Naftamusic\11 - Awakening.wav
Peak level 97.7 % Extraction speed 4.7 X Track quality 100.0 % Test CRC AE427214 Copy CRC AE427214 Track not present in AccurateRip database Copy OK
Track 12
Filename E:\Nafta Releases\Szekeres Tamás - White Shapes Of Blue (2019)[FLAC] - Naftamusic\12 - Maybe Tomorrow.wav
Peak level 97.7 % Extraction speed 4.9 X Track quality 100.0 % Test CRC 0B83AEC5 Copy CRC 0B83AEC5 Track not present in AccurateRip database Copy OK
None of the tracks are present in the AccurateRip database
No errors occurred
End of status report
==== Log checksum 3D738CB7D727F93690BDC094AF18F1F26EC9776516DC7FA689E09F753108ADCB ====

Содержание индексной карты (.CUE)

REM GENRE "Instrumental Rock"REM DATE 2019REM DISCID 9F0B030CREM COMMENT "ExactAudioCopy v1.3"PERFORMER "Szekeres Tamás"TITLE "White Shapes Of Blue"REM COMPOSER ""FILE "01 - Viking Kong.wav" WAVE TRACK 01 AUDIO TITLE "Viking Kong" PERFORMER "Szekeres Tamás" REM COMPOSER "" INDEX 01 00:00:00FILE "02 - Irish Leg.wav" WAVE TRACK 02 AUDIO TITLE "Irish Leg" PERFORMER "Szekeres Tamás" REM COMPOSER "" INDEX 01 00:00:00FILE "03 - The Immigrant Identity.wav" WAVE TRACK 03 AUDIO TITLE "The Immigrant Identity" PERFORMER "Szekeres Tamás" REM COMPOSER "" INDEX 01 00:00:00FILE "04 - Joy Of Perspective.wav" WAVE TRACK 04 AUDIO TITLE "Joy Of Perspective" PERFORMER "Szekeres Tamás" REM COMPOSER "" INDEX 01 00:00:00FILE "05 - Dorian Example.wav" WAVE TRACK 05 AUDIO TITLE "Dorian Example" PERFORMER "Szekeres Tamás" REM COMPOSER "" INDEX 01 00:00:00FILE "06 - Still Loving You.wav" WAVE TRACK 06 AUDIO TITLE "Still Loving You" PERFORMER "Szekeres Tamás" REM COMPOSER "" INDEX 01 00:00:00FILE "07 - Planned Emotions.wav" WAVE TRACK 07 AUDIO TITLE "Planned Emotions" PERFORMER "Szekeres Tamás" REM COMPOSER "" INDEX 01 00:00:00FILE "08 - Further On Up The Road.wav" WAVE TRACK 08 AUDIO TITLE "Further On Up The Road" PERFORMER "Szekeres Tamás" REM COMPOSER "" INDEX 01 00:00:00FILE "09 - White Shapes Of Blue.wav" WAVE TRACK 09 AUDIO TITLE "White Shapes Of Blue" PERFORMER "Szekeres Tamás" REM COMPOSER "" INDEX 01 00:00:00FILE "10 - Feeling Of Wellbeing.wav" WAVE TRACK 10 AUDIO TITLE "Feeling Of Wellbeing" PERFORMER "Szekeres Tamás" REM COMPOSER "" INDEX 01 00:00:00FILE "11 - Awakening.wav" WAVE TRACK 11 AUDIO TITLE "Awakening" PERFORMER "Szekeres Tamás" REM COMPOSER "" INDEX 01 00:00:00FILE "12 - Maybe Tomorrow.wav" WAVE TRACK 12 AUDIO TITLE "Maybe Tomorrow" PERFORMER "Szekeres Tamás" REM COMPOSER "" INDEX 01 00:00:00

Об исполнителе (группе)

Szekeres Tamás - gitárok, billentyűk, programozás
Földi Albert - billentyűs hangszerek (4, 5, 9, 11.)

Об альбоме (сборнике)


20 év után, 2019. november 8-án végre ismét szólólemezt jelentetett meg Szekeres Tamás!
Az instrumentális gitárzene hazai úttörője a mára 30 éves, klasszikus Guitarmania című lemezével robbant be a köztudatba, meghonosítva ezzel egy addig kvázi ismeretlen műfajt idehaza. Lemezeit sikerre vitte külföldön is, olyan ismert arcokkal turnézott és zenélt együtt, mint Tony McAlpine vagy Ken Tamplin. Játszott az Omen zenekarban, illetve több mint 25 éve állandó közreműködője az Omega koncertjeinek.
A White Shapes Of Blue Tamás 13. szólólemeze, egyfajta keresztmetszete az eddigi munkásságának. A virtuozitás olyan érzelemgazdag játékkal párosul, hogy önkéntelenül is átadja magát a hallgató az élménynek. A borítóból is sugárzó visszafogott elegancia a dalokban is tükröződik, öncélú virgázás helyett ezúttal is a daloké a főszerep, ám a technika és alázat továbbra is komoly szerepet kap.
Az új album az 1999-es King Street Blues című albumot követi.

Спустя 20 лет, 8 ноября 2019 года, Тамаш Секереш наконец выпустил сольный альбом!
30-летний классик Guitarmania, создатель отечественной инструментальной гитарной музыки, взорвался на всеобщее обозрение, привнося здесь почти неизвестный жанр. Он также гастролировал за границей, гастролировал и играл с такими известными лицами, как Тони Макалпин или Кен Тамплин. Он играет с группой Omen и более 25 лет регулярно участвует в концертах Omega.
Tamás White Shapes Of Blue - 13-й сольный альбом, своего рода сечение его работы. Виртуозность сочетается с богатой эмоциями игрой, которая невольно сдается опыту. Сдержанная элегантность, исходящая от обложки, также отражена в песнях, но вместо самоуничижения песни играют главную роль, но техника и скромность продолжают играть главную роль.
Новый альбом последовал за альбомом King Street Blues 1999 года.

After 20 years, on November 8, 2019, Tamás Szekeres finally released a solo album!
The domestic pioneer of instrumental guitar music has exploded into the public eye with its 30-year-old classic Guitarmania, bringing home a quasi-unknown genre here. He also toured overseas, touring and playing with famous faces like Tony McAlpine or Ken Tamplin. He has been playing with the Omen band and has been a regular contributor to Omega concerts for over 25 years.
Tamás White Shapes Of Blue is the 13th solo album, a kind of cross section of his work so far. Virtuosity is coupled with emotion-rich play that involuntarily surrenders to the experience. The understated elegance radiating from the cover is reflected in the songs as well, but instead of self-effacing, the songs play the main role, but technique and humility continue to play a major role.
The new album follows the 1999 King Street Blues album.
[ru-zerkalo.org]_t_5805408
Torrent: Registered ·  [ 2019-11-15 02:04 ] ·  aa86da798e8e621a8b6bded6bde14585a874c23c

15 KB

Status: checked
Completed: 0 times
Size: 345 MB
Rating: 
(Votes: 0)
Say thanks: 0  Thanks
 
Похожие темы
[Profile] [PM]
Display posts from previous:    
Reply to topic

The time now is: Today 11:46

All times are GMT + 7 Hours



You cannot post new topics in this forum
You cannot reply to topics in this forum
You cannot edit your posts in this forum
You cannot delete your posts in this forum
You cannot vote in polls in this forum
You cannot attach files in this forum
You can download files in this forum