Register · 
Username: Password:
 ·  Forgot password?

(Euro-Disco) [CD] Bad Boys Blue - Super 20 - 1989, FLAC (image+.cue), lossless

Reply to topic
DL-List and Torrent activity [Update пиров]
Size:  522 MB   |    Registered:  2 months 8 days   |    Completed:  1 time

Seeder not seen: 1 month 20 days

 
   
 
 
 
Author Message

Makci ®

Gender:

Longevity: 6 years 3 months

Posts: 12853

Post 16-Nov-2019 14:00

[Quote]

Bad Boys Blue / Super 20
Жанр: Euro-Disco
Носитель: CD
Страна-производитель диска (релиза): Hungary
Год издания: 1989
Издатель (лейбл): Coconut
Номер по каталогу: 260 168-217
Страна исполнителя (группы): Germany
Аудиокодек: FLAC (*.flac)
Тип рипа: image+.cue
Продолжительность: 01:19:31
Источник: собственный рип
Наличие сканов в содержимом раздачи: да
Треклист:
01. Lady In Black (Radio Edit) [03:47]
02. Come Back & Stay [04:07]
03. Gimme, Gimme Your Lovin' (Little Lady) [03:55]
04. Hungry For Love (Radio Edit) [04:14]
05. Don't Walk Away, Suzanne [03:46]
06. L.O.V.E. In My Car [04:02]
07. You're A Woman [03:56]
08. A World Without You (Michelle) (Radio Edit) [03:37]
09. I Wanna Hear Your Heartbeat (Sunday Girl) [04:03]
10. Pretty Young Girl [03:33]
11. Kisses And Tears (My One & Only) [03:58]
12. Love Really Hurts Without You [03:41]
13. Lovers In The Sand [03:40]
14. Kiss You All Over, Baby (New Version) [04:12]
15. Hot Girls - Bad Boys [04:07]
16. One Night In Heaven [04:49]
17. Baby I Love You [03:59]
18. Love Is No Crime [03:35]
19. Inside Of Me [03:45]
20. Blue Moon [04:32]

Лог создания рипа

Exact Audio Copy V1.0 beta 3 from 29. August 2011
Отчёт EAC об извлечении, выполненном 15. ноября 2019, 20:31
Bad Boys Blue / Super 20
Дисковод: Optiarc DVD RW AD-7280S Adapter: 1 ID: 0
Режим чтения : ДостоверностьИспользование точного потока : ДаОтключение кэша аудио : ДаИспользование указателей C2 : Нет
Коррекция смещения при чтении : 48Способность читать области Lead-in и Lead-out : НетЗаполнение пропущенных сэмплов тишиной : ДаУдаление блоков с тишиной в начале и конце : НетПри вычислениях CRC использовались нулевые сэмплы : ДаИнтерфейс : Встроенный Win32-интерфейс для Win NT/2000
Выходной формат : Пользовательский кодировщикВыбранный битрейт : 768 kBit/sКачество : ВысокийДобавление ID3-тега : НетУтилита сжатия : C:\Program Files (x86)\Exact Audio Copy\FLAC\FLAC.EXEДополнительные параметры : -8 -V -T "ARTIST=%artist%" -T "TITLE=%title%" -T "ALBUM=%albumtitle%" -T "DATE=%year%" -T "TRACKNUMBER=%tracknr%" -T "GENRE=%genre%" -T "COMMENT=%comment%" -T "BAND=%albuminterpret%" -T "ALBUMARTIST=%albuminterpret%" -T "COMPOSER=%composer%" %haslyrics%--tag-from-file=LYRICS="%lyricsfile%"%haslyrics% -T "DISCNUMBER=%cdnumber%" -T "TOTALDISCS=%totalcds%" -T "TOTALTRACKS=%numtracks%" %hascover%--picture="%coverfile%"%hascover% %source% -o %dest%
TOC извлечённого CD
Трек | Старт | Длительность | Начальный сектор | Конечный сектор --------------------------------------------------------------------- 1 | 0:00.00 | 3:47.65 | 0 | 17089 2 | 3:47.65 | 4:07.15 | 17090 | 35629 3 | 7:55.05 | 3:55.48 | 35630 | 53302 4 | 11:50.53 | 4:14.55 | 53303 | 72407 5 | 16:05.33 | 3:46.30 | 72408 | 89387 6 | 19:51.63 | 4:02.70 | 89388 | 107607 7 | 23:54.58 | 3:56.55 | 107608 | 125362 8 | 27:51.38 | 3:37.45 | 125363 | 141682 9 | 31:29.08 | 4:03.25 | 141683 | 159932 10 | 35:32.33 | 3:33.55 | 159933 | 175962 11 | 39:06.13 | 3:58.45 | 175963 | 193857 12 | 43:04.58 | 3:41.67 | 193858 | 210499 13 | 46:46.50 | 3:40.65 | 210500 | 227064 14 | 50:27.40 | 4:12.30 | 227065 | 245994 15 | 54:39.70 | 4:07.55 | 245995 | 264574 16 | 58:47.50 | 4:49.70 | 264575 | 286319 17 | 63:37.45 | 3:59.55 | 286320 | 304299 18 | 67:37.25 | 3:35.20 | 304300 | 320444 19 | 71:12.45 | 3:45.43 | 320445 | 337362 20 | 74:58.13 | 4:32.60 | 337363 | 357822
Характеристики диапазона извлечения и сообщения об ошибках
Выбранный диапазон
Имя файла D:\РАЗДАЧИ\Bad Boys Blue-Super 20 (1989)\Bad Boys Blue - Super 20.wav
Пиковый уровень 100.0 % Скорость извлечения 3.7 X Качество диапазона 100.0 % CRC теста 2322AF3A CRC копии 2322AF3A Копирование... OK
Ошибок не произошло
AccurateRip: сводка
Трек 1 : извлечено точно (доверие 1) [4F4E8CA6] (AR v2)Трек 2 : извлечено точно (доверие 1) [C18127AB] (AR v2)Трек 3 : извлечено точно (доверие 1) [79F147B1] (AR v2)Трек 4 : извлечено точно (доверие 1) [1517EDCD] (AR v2)Трек 5 : извлечено точно (доверие 1) [92D11ADD] (AR v2)Трек 6 : извлечено точно (доверие 1) [0CE8FDC2] (AR v2)Трек 7 : извлечено точно (доверие 1) [569DB6F7] (AR v2)Трек 8 : извлечено точно (доверие 1) [83DEB4E0] (AR v2)Трек 9 : извлечено точно (доверие 1) [6E8DDF6E] (AR v2)Трек 10 : извлечено точно (доверие 1) [523408A3] (AR v2)Трек 11 : извлечено точно (доверие 1) [B6CE969F] (AR v2)Трек 12 : извлечено точно (доверие 1) [EF6B7EFD] (AR v2)Трек 13 : извлечено точно (доверие 1) [5DEE3E3F] (AR v2)Трек 14 : извлечено точно (доверие 1) [A38E0D82] (AR v2)Трек 15 : извлечено точно (доверие 1) [D23154F9] (AR v2)Трек 16 : извлечено точно (доверие 1) [C04279CD] (AR v2)Трек 17 : извлечено точно (доверие 1) [BAD60250] (AR v2)Трек 18 : извлечено точно (доверие 1) [53446718] (AR v2)Трек 19 : извлечено точно (доверие 1) [69B116FE] (AR v2)Трек 20 : извлечено точно (доверие 1) [E8CF39E5] (AR v2)
Все треки извлечены точно
Конец отчёта
==== Контрольная сумма отчёта 1C74A6A7207BB17E384EA94403170F5CFE22576A91FB54BAD29E83D12DED5BBE ====
[ru-zerkalo.org]_t_5806138
Torrent: Registered ·  [ 2019-11-16 14:00 ] ·  6f1b40ce0f90a353bacfe9dc87fb55d1795cd950

11 KB

Status: checked
Completed: 1 times
Size: 522 MB
Rating: 
(Votes: 0)
Say thanks: 0  Thanks
 
Похожие темы
[Profile] [PM]
Display posts from previous:    
Reply to topic

The time now is: Today 19:31

All times are GMT + 7 Hours



You cannot post new topics in this forum
You cannot reply to topics in this forum
You cannot edit your posts in this forum
You cannot delete your posts in this forum
You cannot vote in polls in this forum
You cannot attach files in this forum
You can download files in this forum