Register · 
Username: Password:
 ·  Forgot password?

Царица амазонок / Королева амазонок / Colossus and the Amazon Queen / La regina delle Amazzoni (Витторио Сала / Vittorio Sala) [1960, Италия, фэнтези, приключения, VHSRip] VO (Роман Янкелевич) + Original Fra

Reply to topic
DL-List and Torrent activity [Update пиров]
Size:  1.39 GB   |    Registered:  2 months 2 days   |    Completed:  0 times

Seeder not seen: Never

 
   
 
 
 
Author Message

Andrew1225 ®

Gender:

Longevity: 6 years 3 months

Posts: 17482

Post 16-Nov-2019 20:31

[Quote]

Царица амазонок / Королева амазонок / Colossus and the Amazon Queen / La reine des Amazones / La regina delle Amazzoni
Страна: Италия
Жанр: фэнтези, приключения
Год выпуска: 1960
Продолжительность: 01:24:04
Перевод: Одноголосый закадровый Роман Янкилевич
Субтитры: нет
Режиссер: Витторио Сала / Vittorio Sala
В ролях: Дориан Грей
Род Тейлор
Джанна Мария Канале
Эд Фьюри
Альберто Фарнезе
Игнацио Леоне
Адриана Фаччетти
Джорджия Молл
Фолько Люлли
Альфредо Варелли
Описание: Возвращавшегося после троянской войны домой Главка с товарищами хитрые корабельщики решили продать в рабство амазонкам, чье государство, управляемое мудрой Королевой, явно нуждалось в рабочих руках. Вот только амазонки не учли, что у мужчин к рукам прилагается кое-что еще. Так что хитроумный Главк в паре с могучим приятелем Пирром без труда устроит в Царстве Амазонок форменный переполох…
Доп. информация:
Дорожка с Р. Янкелевичем синхронизирована и наложена ale_x2008 при помощи Sony Vegas и VirtualDubMod.
За оцифрованную с VHS дорожку благодарим - alenavova


Сэмпл: http://yadi.sk/i/IYhxzZn84PBX4Q
Качество видео: VHSRip
Формат видео: AVI
Видео: XviD build 73, 704x304 (2.32:1), 25 fps, 1960 kbps avg, 0.37 bit/pixel
Аудио: AC3 Dolby Digital, 48000Hz 2/0 (L,R) ch (mono), 192 kbps avg
Аудио 2: AC3 Dolby Digital, 48000Hz 2/0 (L,R) ch (mono), 192 kbps avg

MediaInfo

Царица амазонок - La regina delle Amazzoni [by ale_x2008].aviFormat : AVIFormat/Info : Audio Video InterleaveFile size : 1.39 GiBDuration : 1 h 24 minOverall bit rate : 2 359 kb/sMovie name : Царица амазонок - La regina delle Amazzoni [by ale_x2008]Director : by ale_X2008Writing application : VirtualDubMod 1.5.10.2 (build 2540/release)Copyright : Edich2Comment :
VideoID : 0Format : MPEG-4 VisualFormat profile : Advanced Simple@L5Format settings : BVOP1 / Custom MatrixFormat settings, BVOP : 1Format settings, QPel : NoFormat settings, GMC : No warppointsFormat settings, Matrix : CustomCodec ID : XVIDCodec ID/Hint : XviDDuration : 1 h 24 minBit rate : 1 961 kb/sWidth : 704 pixelsHeight : 304 pixelsDisplay aspect ratio : 2.35:1Frame rate : 25.000 FPSColor space : YUVChroma subsampling : 4:2:0Bit depth : 8 bitsScan type : ProgressiveCompression mode : LossyBits/(Pixel*Frame) : 0.366Stream size : 1.15 GiB (83%)Writing library : XviD 73
Audio #1ID : 1Format : AC-3Format/Info : Audio Coding 3Codec ID : 2000Duration : 1 h 24 minBit rate mode : ConstantBit rate : 192 kb/sChannel(s) : 2 channelsChannel positions : Front: L RSampling rate : 48.0 kHzFrame rate : 31.250 FPS (1536 SPF)Bit depth : 16 bitsCompression mode : LossyStream size : 115 MiB (8%)Alignment : Split accross interleavesInterleave, duration : 40 ms (1.00 video frame)Interleave, preload duratio : 500 msService kind : Complete Main
Audio #2ID : 2Format : AC-3Format/Info : Audio Coding 3Codec ID : 2000Duration : 1 h 24 minBit rate mode : ConstantBit rate : 192 kb/sChannel(s) : 2 channelsChannel positions : Front: L RSampling rate : 48.0 kHzFrame rate : 31.250 FPS (1536 SPF)Bit depth : 16 bitsCompression mode : LossyStream size : 115 MiB (8%)Alignment : Split accross interleavesInterleave, duration : 40 ms (1.00 video frame)Interleave, preload duratio : 500 msService kind : Complete Main

Скриншоты


[ru-zerkalo.org]_t_5763962
Torrent: Registered ·  [ 2019-11-16 20:31 ] ·  01f346e9115e7448831d8d584eac13887ebeaf6a

14 KB

Status: checked
Completed: 0 times
Size: 1.39 GB
Rating: 
(Votes: 0)
Say thanks: 0  Thanks
 
Похожие темы
[Profile] [PM]
Display posts from previous:    
Reply to topic

The time now is: Today 02:16

All times are GMT + 7 Hours



You cannot post new topics in this forum
You cannot reply to topics in this forum
You cannot edit your posts in this forum
You cannot delete your posts in this forum
You cannot vote in polls in this forum
You cannot attach files in this forum
You can download files in this forum