Register · 
Username: Password:
 ·  Forgot password?

Эммануэль: Королева страсти / Emmanuelle Queen of sados / Emmanuelle\'s Daughter / I mavri Emmanouella (Илиас Милонакос / Ilias Mylonakos) [1980, Греция, Кипр, драма, мелодрама, эротика, DVDRip-AVC] DVO + Original Eng

Reply to topic
DL-List and Torrent activity [Update пиров]
Size:  1.47 GB   |    Registered:  2 months 2 days   |    Completed:  0 times

Seeder not seen: Never

 
   
 
 
 
Author Message

god56 ®

Gender:

Longevity: 6 years 3 months

Posts: 25997

Post 16-Nov-2019 21:32

[Quote]

Эммануэль: Королева страсти / Emmanuelle Queen of sados / I mavri Emmanouella
Страна: Греция, Кипр
Жанр: драма, мелодрама, эротика
Год выпуска: 1980
Продолжительность: 01:31:09
Перевод: Профессиональный (двухголосый закадровый)
Субтитры: нет
Оригинальная аудиодорожка: английский
Режиссер: Илиас Милонакос / Ilias Mylonakos
В ролях: Лаура Гемсер, Габриэле Тинти, Ливия Руссо, Харис Трифонас, Надя Нери, Гордон Митчелл, Пантелис Агелопу, Вагелис Вартан, Элли Кириакиду, Георге Зениос...
Описание: На этот раз красавице Эммануэль и ее юной и невинной пятнадцатилетней приемной дочери Ливии приходится окунуться в бездну порочных страстей. И для того, чтобы обрести свободу и независимость, Эммануэль приходится платить сексом и деньгами.
Доп. информация: Перевод с раздачи Wаldo, 5.1 дутый, голоса во всех каналах. Синхронизация звука - Dreven.
Сэмпл: http://sendfile.su/1528881
Качество видео: DVDRip-AVC
Формат видео: MKV
Видео: 700x480 (1.296) @ 700x540, 23.976 fps, AVC, ~1879 Kbps, 0.233 bits/pixel
Аудио 1: Russian, 48.0 KHz, AC3, 2 ch, 192 Kbps
Аудио 2: English, 48.0 KHz, AC3, 2 ch, 192 Kbps

MediaInfo

GeneralUnique ID : 151571080137244471975530756484512284093 (0x72078737B7E1EDA83D5F5B84A3D2FDBD)Complete name : C:\I mavri Emmanouella.mkvFormat : MatroskaFormat version : Version 4 / Version 2File size : 1.47 GiBDuration : 1 h 31 minOverall bit rate : 2 309 kb/sEncoded date : UTC 2019-11-16 12:01:48Writing application : mkvmerge v40.0.0 ('Old Town Road + Pony') 64-bitWriting library : libebml v1.3.9 + libmatroska v1.5.2
VideoID : 1Format : AVCFormat/Info : Advanced Video CodecFormat profile : High@L4.1Format settings : CABAC / 16 Ref FramesFormat settings, CABAC : YesFormat settings, ReFrames : 16 framesCodec ID : V_MPEG4/ISO/AVCDuration : 1 h 31 minBit rate : 1 925 kb/sWidth : 700 pixelsHeight : 480 pixelsDisplay aspect ratio : 1.296Frame rate mode : ConstantFrame rate : 23.976 (24000/1001) FPSColor space : YUVChroma subsampling : 4:2:0Bit depth : 8 bitsScan type : ProgressiveBits/(Pixel*Frame) : 0.239Stream size : 1.23 GiB (83%)Writing library : x264 core 142 r2479 dd79a61Encoding settings : cabac=1 / ref=16 / deblock=1:-3:-3 / analyse=0x3:0x133 / me=umh / subme=10 / psy=1 / psy_rd=1.00:0.00 / mixed_ref=1 / me_range=32 / chroma_me=1 / trellis=2 / 8x8dct=1 / cqm=0 / deadzone=21,11 / fast_pskip=0 / chroma_qp_offset=-2 / threads=6 / lookahead_threads=1 / sliced_threads=0 / nr=0 / decimate=1 / interlaced=0 / bluray_compat=0 / constrained_intra=0 / bframes=16 / b_pyramid=2 / b_adapt=2 / b_bias=0 / direct=3 / weightb=1 / open_gop=0 / weightp=2 / keyint=240 / keyint_min=24 / scenecut=40 / intra_refresh=0 / rc_lookahead=60 / rc=crf / mbtree=0 / crf=18.0 / qcomp=0.60 / qpmin=0 / qpmax=69 / qpstep=4 / vbv_maxrate=62500 / vbv_bufsize=78125 / crf_max=0.0 / nal_hrd=none / filler=0 / ip_ratio=1.40 / pb_ratio=1.30 / aq=2:1.00Language : EnglishDefault : YesForced : NoColor range : LimitedColor primaries : BT.601 NTSCTransfer characteristics : BT.709Matrix coefficients : BT.601
Audio #1ID : 2Format : AC-3Format/Info : Audio Coding 3Commercial name : Dolby DigitalCodec ID : A_AC3Duration : 1 h 30 minBit rate mode : ConstantBit rate : 192 kb/sChannel(s) : 2 channelsChannel layout : L RSampling rate : 48.0 kHzFrame rate : 31.250 FPS (1536 SPF)Bit depth : 16 bitsCompression mode : LossyStream size : 125 MiB (8%)Language : RussianService kind : Complete MainDefault : YesForced : No
Audio #2ID : 3Format : AC-3Format/Info : Audio Coding 3Commercial name : Dolby DigitalCodec ID : A_AC3Duration : 1 h 30 minBit rate mode : ConstantBit rate : 192 kb/sChannel(s) : 2 channelsChannel layout : L RSampling rate : 48.0 kHzFrame rate : 31.250 FPS (1536 SPF)Bit depth : 16 bitsCompression mode : LossyStream size : 125 MiB (8%)Language : EnglishService kind : Complete MainDefault : NoForced : No
Menu00:00:00.000 : :Chapter 100:01:37.305 : :Chapter 200:07:39.042 : :Chapter 300:15:51.367 : :Chapter 400:24:16.246 : :Chapter 500:31:46.488 : :Chapter 600:38:51.579 : :Chapter 700:45:08.956 : :Chapter 800:51:35.467 : :Chapter 901:10:04.158 : :Chapter 1001:17:05.787 : :Chapter 1101:28:31.180 : :Chapter 1201:30:49.068 : :Chapter 13

Скриншоты

[ru-zerkalo.org]_t_5806461
Torrent: Registered ·  [ 2019-11-16 21:32 ] ·  a013d2191ed41d4d3ee4753d099a32b7f49ec48c

15 KB

Status: checked
Completed: 0 times
Size: 1.47 GB
Rating: 
(Votes: 0)
Say thanks: 0  Thanks
 
Похожие темы
[Profile] [PM]
Display posts from previous:    
Reply to topic

The time now is: Today 02:13

All times are GMT + 7 Hours



You cannot post new topics in this forum
You cannot reply to topics in this forum
You cannot edit your posts in this forum
You cannot delete your posts in this forum
You cannot vote in polls in this forum
You cannot attach files in this forum
You can download files in this forum